Хэйвен / Тайны Хейвена / Haven [05х01-05 из 13] (2014) WEB-DL 720p от CasStudio | Кубик в Кубе

 
Author Message

Белочка ®

Gender:

Longevity: 8 years 3 months

Posts: 2015



: 1 ()

Girls (1)
Торрент-статистика

Post 22-Oct-2014 21:44

[Quote]

Информация о фильме
Название: Хэйвен / Тайны Хейвена
Оригинальное название: Haven
Год выхода: 2014
Жанр: Мистический триллер, криминальный детектив, ужасы
Режиссер: Т.У. Пикок, Ли Роуз, Тим Соутэм, Фред Гербер, Роберт Либерман, Рейчел Тэлалей, Шоун Пиллер
В ролях: Эмили Роуз, Лукас Брайант, Эрик Бальфур, Ричард Донат, Джон Дансуорт, Николас Кэмпбелл, Адам Коуплэнд, Бри Уильямсон, Глен Лефчак, Кейт Келтон, Стивен МакХэтти, Кристофер Шор, Винесса Антуан, Морис Дин Винт
О фильме:
За основу взят сюжет из книги Стивена Кинга "The Colorado Kid" ("Дитя Колорадо"). В маленький город Хейвен приезжает агент ФБР Одри Паркер, чтобы расследовать смерть бывшего преступника. Из-за своего природного любопытства она попала в эпицентр этого необычного анклава, который, оказывается, издавна служил пристанищем для людей со сверхспособностями. Среди местных жителей города полицейский Натан Вурно, который стал напарником Одри, и загадочный и обаятельный мастер на все руки Дюк Крокер.

Содержание

01. Не вижу зла / See No Evil
02. Ничего никому не скажу / Speak No Evil

Дополнительно

Озвучка: Кубик в Кубе
Рип, работа со звуком: ЛП
Перевод: Анастасия Кисиленко (Medveditsa)
При поддержке: HDOUT

MI

Общее
Уникальный идентификатор : 221563939802645868913809933382157283480 (0xA6AFA9A1DF6EC270AD1E8349B65B3098)
Полное имя : Haven Season 5 720p CasStudio.TVHaven.s05e01.rus.eng.720p.CasStudio.TV.mkv
Формат : Matroska
Версия формата : Version 4 / Version 2
Размер файла : 1,43 Гбайт
Продолжительность : 42 м.
Общий поток : 4825 Кбит/сек
Дата кодирования : UTC 2014-09-22 17:07:13
Программа кодирования : mkvmerge v7.2.0 ('On Every Street') 64bit built on Sep 13 2014 15:52:10
Библиотека кодирования : libebml v1.3.0 + libmatroska v1.4.1
DURATION : 00:42:19.648000000
NUMBER_OF_FRAMES : 79364
NUMBER_OF_BYTES : 121903104
_STATISTICS_WRITING_APP : mkvmerge v7.2.0 ('On Every Street') 64bit built on Sep 13 2014 15:52:10
_STATISTICS_WRITING_DATE_UTC : 2014-09-22 17:07:13
_STATISTICS_TAGS : BPS DURATION NUMBER_OF_FRAMES NUMBER_OF_BYTES
Видео
Идентификатор : 1
Формат : AVC
Формат/Информация : Advanced Video Codec
Профиль формата : High@L3.1
Параметр CABAC формата : Нет
Параметр ReFrames формата : 2 кадра
Идентификатор кодека : V_MPEG4/ISO/AVC
Продолжительность : 42 м.
Битрейт : 3961 Кбит/сек
Ширина : 1280 пикселей
Высота : 718 пикселей
Соотношение сторон : 16:9
Режим частоты кадров : Постоянный
Частота кадров : 23,976 кадра/сек
Цветовое пространство : YUV
Субдискретизация насыщенности : 4:2:0
Битовая глубина : 8 бит
Тип развёртки : Прогрессивная
Бит/(Пиксели*Кадры) : 0.180
Размер потока : 1,17 Гбайт (82%)
Default : Да
Forced : Нет
Основные цвета : BT.709
Характеристики трансфера : BT.709
Коэффициенты матрицы : BT.709
Аудио #1
Идентификатор : 2
Формат : AC-3
Формат/Информация : Audio Coding 3
Расширение режима : CM (complete main)
Параметр Endianness формата : Big
Идентификатор кодека : A_AC3
Продолжительность : 42 м.
Вид битрейта : Постоянный
Битрейт : 384 Кбит/сек
Каналы : 6 каналов
Расположение каналов : Front: L C R, Side: L R, LFE
Частота : 48,0 КГц
Битовая глубина : 16 бит
Метод сжатия : С потерями
Размер потока : 116 Мбайт (8%)
Язык : Russian
Default : Да
Forced : Нет
Аудио #2
Идентификатор : 3
Формат : AC-3
Формат/Информация : Audio Coding 3
Расширение режима : CM (complete main)
Параметр Endianness формата : Big
Идентификатор кодека : A_AC3
Продолжительность : 42 м.
Вид битрейта : Постоянный
Битрейт : 384 Кбит/сек
Каналы : 6 каналов
Расположение каналов : Front: L C R, Side: L R, LFE
Частота : 48,0 КГц
Битовая глубина : 16 бит
Метод сжатия : С потерями
Размер потока : 116 Мбайт (8%)
Язык : English
Default : Нет
Forced : Нет
Текст #1
Идентификатор : 4
Формат : UTF-8
Идентификатор кодека : S_TEXT/UTF8
Идентификатор кодека/Информация : UTF-8 Plain Text
Язык : Russian
Default : Нет
Forced : Нет
Текст #2
Идентификатор : 5
Формат : UTF-8
Идентификатор кодека : S_TEXT/UTF8
Идентификатор кодека/Информация : UTF-8 Plain Text
Язык : English
Default : Нет
Forced : Нет

Страна: Канада
Продолжительность: ~ 00:43:00
Перевод: Профессиональный двухголосый закадровый, Кубик в Кубе
Файл
Кодек: x264
Качество: WEB-DL 720p
Видео: MPEG-4 AVC, ~ 4100 Кбит/с, 1280x718
Звук: Русский, английский (АС3, 6 ch, 384 Кбит/с)
Субтитры: Русские, английские

Скриншоты


Релиз от:
[Profile] [PM]

Post 01-May-2017 16:36 (after 2 years 6 months)

Топик был перенесен из форума Зарубежные сериалы в форум Архив
E.S.P.
 
Display posts from previous:    

The time now is: Today 06:09

All times are GMT



You cannot post new topics in this forum
You cannot reply to topics in this forum
You cannot edit your posts in this forum
You cannot delete your posts in this forum
You cannot vote in polls in this forum
You cannot attach files in this forum
You cannot download files in this forum