500 дней лета / (500) Days of Summer (Марк Уэбб / Marc Webb.) [2009, США, комедия, мелодрама, драма, HDRip] Dub

 
Автор Сообщение

painkiller ®

Стаж: 2 года 3 месяца

Сообщений: 582



Награды: Нет

Торрент-статистика

Создавать темы 16-Авг-2014 01:28

[Цитировать]

500 дней лета / (500) Days of Summer-«Это не любовная история, это история о любви»- Страна: США | |
Жанр: комедия, мелодрама, драма
Год выпуска: 2009
Продолжительность: 01:35:04-Перевод: Профессиональный (дублированный)
Cубтитры: нет
Режиссер: Марк Уэбб / Marc Webb.-В ролях: Зои Дешанель, Джозеф Гордон-Левитт, Джеффри Аренд, Оливия Ховард Бэйг, Патриция Белчер, Чарльз Уолкер, Рейчел Бостон, Ивет Николь Браун, Катрин Кэмпион, Джошуа Коллинз.-Описание: Главный герой работает в агентстве, выпускающей поздравительные открытки. Он придумывает все те забавные подписи, которые мы с Вами читаем на них. Молодой человек влюбляется в свою коллегу и решает, что она — «та, единственная». Но 500 дней их отношений показывают герою, что путь к счастью непредсказуем, неконтролируем и — невероятно забавен!-КиноПоиск | IMDB | Семпл-Качество видео: HDRip
Формат видео: AVI
Видео: 688x288 (2.39:1), 23.976 fps, XviD build 73 ~965 kbps avg, 0.20 bit/pixel
Аудио: 48 kHz, MPEG Layer 3, 2 ch, ~128.00 kbps avg

MediaInfo

General
Complete name : E:\500 дней лета.(Logan1995).avi
Format : AVI
Format/Info : Audio Video Interleave
File size : 750 Мбайт
Duration : 1 ч. 35 м.
Overall bit rate : 1103 Кбит/сек
Writing application : VirtualDubMod 1.5.10.3 | www.virtualdub-fr.org || (build 2550/release)
Writing library : VirtualDubMod build 2550/release
Video
ID : 0
Format : MPEG-4 Visual
Format profile : Advanced Simple@L5
Format settings, BVOP : 1
Format settings, QPel : Нет
Format settings, GMC : Без точки перехода
Format settings, Matrix : Выборочная
Codec ID : XVID
Codec ID/Hint : XviD
Duration : 1 ч. 35 м.
Bit rate : 965 Кбит/сек
Width : 688 пикс.
Height : 288 пикс.
Display aspect ratio : 2,35:1
Frame rate : 23,976 кадр/сек
Color space : YUV
Chroma subsampling : 4:2:0
Bit depth : 8 бит
Scan type : Прогрессивная
Compression mode : С потерями
Bits/(Pixel*Frame) : 0.203
Stream size : 656 Мбайт (88%)
Writing library : XviD 73
Audio
ID : 1
Format : MPEG Audio
Format version : Version 1
Format profile : Layer 3
Codec ID : 55
Codec ID/Hint : MP3
Duration : 1 ч. 35 м.
Bit rate mode : Постоянный
Bit rate : 128 Кбит/сек
Channel(s) : 2 канала(ов)
Sampling rate : 48,0 КГц
Compression mode : С потерями
Stream size : 87,0 Мбайт (12%)
Alignment : Соединение по промежуткам
Interleave, duration : 42 мс. (1,00 видеокадр)
Interleave, preload duration : 504 ms
Writing library : LAME3.99r
Encoding settings : -m s -V 4 -q 2 -lowpass 17 -b 128

Скриншоты

--
[Профиль] [ЛС]

Создавать темы 06-Авг-2015 23:09 (спустя 11 месяцев 21 день)

Топик был перенесен из форума Фильмы до 2014 года в форум Фильмы до 2012 года
sergej644
 

Создавать темы 12-Июн-2016 08:48 (спустя 1 год 9 месяцев)

Топик был перенесен из форума Фильмы 2011 года в форум Фильмы 2009 года
Russian Mafia
 
Показать сообщения:    

Текущее время: Сегодня 22:11

Часовой пояс: GMT



Вы не можете начинать темы
Вы не можете отвечать на сообщения
Вы не можете редактировать свои сообщения
Вы не можете удалять свои сообщения
Вы не можете голосовать в опросах
Вы не можете прикреплять файлы к сообщениям
Вы не можете скачивать файлы