5-я волна / The 5th Wave (2016) BDRip 1080p | Лицензия

 
Автор Сообщение

достали все ®

Пол:

Стаж: 1 год 8 месяцев

Сообщений: 6611



Награды: 12 (Подробнее)

Mega Releaser 3 (Количество: 1) Top Releaser 3 (Количество: 1) Mega Seeder 5 (Количество: 1)
Торрент-статистика

Создавать темы 20-Май-2016 03:18

[Цитировать]

Информация о фильме
Название: 5-я волна
Оригинальное название: The 5th Wave
Год выхода: 2015
Жанр: Фантастика, боевик, триллер, приключения
Режиссер: Дж. Блэйксон
В ролях: Клои Грэйс Моретц, Ник Дж. Робинсон, Рон Ливингстон, Мэгги Сифф, Алекс Роу, Мария Белло, Майка Монро, Лив Шрайбер, Закари Артур, Тони Револори, Талита Бейтман, Мэттью Зук, Габриела Лопес, Бэйли Энн Бордерс, Дэйв Мальдонадо, Пол Райден, Э. Роджер Митчелл, Чармин Ли, Паркер Вьерлинг, Мэдисон Стэйнс
О фильме:
Есть ли жизнь за пределами фейсбука и инстаграма? Что делать, если прорвало центральный канализационный коллектор? Как распознать инопланетян среди насильников, мародеров, каннибалов и жителей спальных районов? Можно ли похудеть, объедаясь на ночь продуктами, найденными на городской свалке? На эти и другие животрепещущие вопросы предстоит найти ответы хорошей девушке Кэсси и всему молодому поколению, пытающимся отвоевать себе право на светлое будущее посреди накатывающих волн психотронного террора от инопланетных захватчиков.

Страна: США
Студия: Columbia Pictures, GK Films, Living Films, LStar Capital, Material Pictures
Продолжительность: 01:52:22
Перевод: Дублированный | Лицензия (Blu-Ray CEE)
Файл
Кодек: MPEG-4
Качество: BDRip 1080p
Видео: 1920x804, 13.4 Kbit/s, 23.976 fps
Звук:
Аудио #01: 48 kHz, AC3, 5.1, 640 Kbps | Дублированный, Лицензия (Blu-Ray CEE) |
Аудио #02: 48 kHz, AC3, 5.1, 640 Kbps | Дублированный, Лицензия (Blu-Ray CEE) |
Аудио #03: 48 kHz, DTS, 5.1, 1510 kbps | Оригинал |
Субтитры: Русские (forced, full), украинские, английские (srt.SDH)
Автор релиза:

MI

General
Unique ID : 248521485635167277924249015078921608700 (0xBAF77F42001E23148A22072BE9E69DFC)
Complete name : F:VideoThe.5th.Wave..2016..BDRip.1080p.ExKinoRay.mkv
Format : Matroska
Format version : Version 4 / Version 2
File size : 12.7 GiB
Duration : 1h 52mn
Overall bit rate : 16.2 Mbps
Movie name : The.5th.Wave..2016..BDRip.1080p.ExKinoRay
Encoded date : UTC 2016-05-20 01:51:06
Writing application : mkvmerge v8.3.0 ('Over the Horizon') 64bit
Writing library : libebml v1.3.1 + libmatroska v1.4.2
Video
ID : 1
Format : AVC
Format/Info : Advanced Video Codec
Format profile : High@L4.1
Format settings, CABAC : Yes
Format settings, ReFrames : 5 frames
Codec ID : V_MPEG4/ISO/AVC
Duration : 1h 52mn
Bit rate : 13.4 Mbps
Width : 1 920 pixels
Height : 804 pixels
Display aspect ratio : 2.40:1
Frame rate mode : Constant
Frame rate : 23.976 (24000/1001) fps
Color space : YUV
Chroma subsampling : 4:2:0
Bit depth : 8 bits
Scan type : Progressive
Bits/(Pixel*Frame) : 0.362
Stream size : 10.5 GiB (83%)
Title : The.5th.Wave.2016.BDRip.1080p.ExKinoRay.***селезень***
Writing library : x264 core 148 r2665+53 6629127 t_mod_Custom [8-bit@all X86_64]
Encoding settings : cabac=1 / ref=5 / deblock=1:-3:-3 / analyse=0x3:0x133 / me=umh / subme=11 / psy=1 / fade_compensate=0.00 / psy_rd=1.00:0.00 / mixed_ref=1 / me_range=32 / chroma_me=1 / trellis=2 / 8x8dct=1 / cqm=0 / deadzone=21,11 / fast_pskip=0 / chroma_qp_offset=-2 / threads=16 / lookahead_threads=2 / sliced_threads=0 / nr=0 / decimate=0 / interlaced=0 / bluray_compat=0 / constrained_intra=0 / fgo=0 / bframes=8 / b_pyramid=2 / b_adapt=2 / b_bias=0 / direct=3 / weightb=1 / open_gop=0 / weightp=2 / keyint=250 / keyint_min=23 / scenecut=40 / intra_refresh=0 / rc_lookahead=150 / rc=crf / mbtree=0 / crf=15.9000 / qcomp=0.65 / qpmin=0:0:0 / qpmax=69:69:69 / qpstep=4 / vbv_maxrate=50000 / vbv_bufsize=62500 / crf_max=0.0 / nal_hrd=none / filler=0 / ip_ratio=1.30 / pb_ratio=1.20 / aq=3:0.70 / aq-sensitivity=10.00 / aq-factor=1.00:1.00:1.00 / aq2=0 / aq3=0 / zones=112280,125797,crf=13/154260,161663,crf=20
Language : English
Default : Yes
Forced : No
Color range : Limited
Matrix coefficients : BT.709
Audio #1
ID : 2
Format : AC-3
Format/Info : Audio Coding 3
Mode extension : CM (complete main)
Format settings, Endianness : Big
Codec ID : A_AC3
Duration : 1h 52mn
Bit rate mode : Constant
Bit rate : 640 Kbps
Channel(s) : 6 channels
Channel positions : Front: L C R, Side: L R, LFE
Sampling rate : 48.0 KHz
Frame rate : 31.250 fps (1536 spf)
Compression mode : Lossy
Stream size : 514 MiB (4%)
Title : DUB [Blu-ray CEE]
Language : Russian
Default : Yes
Forced : No
Audio #2
ID : 3
Format : AC-3
Format/Info : Audio Coding 3
Mode extension : CM (complete main)
Format settings, Endianness : Big
Codec ID : A_AC3
Duration : 1h 52mn
Bit rate mode : Constant
Bit rate : 640 Kbps
Channel(s) : 6 channels
Channel positions : Front: L C R, Side: L R, LFE
Sampling rate : 48.0 KHz
Frame rate : 31.250 fps (1536 spf)
Compression mode : Lossy
Stream size : 514 MiB (4%)
Title : DUB [Blu-ray CEE]
Language : Ukrainian
Default : No
Forced : No
Audio #3
ID : 4
Format : DTS
Format/Info : Digital Theater Systems
Mode : 16
Format settings, Endianness : Big
Codec ID : A_DTS
Duration : 1h 52mn
Bit rate mode : Constant
Bit rate : 1 509 Kbps
Channel(s) : 6 channels
Channel positions : Front: L C R, Side: L R, LFE
Sampling rate : 48.0 KHz
Frame rate : 93.750 fps (512 spf)
Bit depth : 24 bits
Compression mode : Lossy
Stream size : 1.18 GiB (9%)
Title : Original
Language : English
Default : No
Forced : No
Text #1
ID : 5
Format : UTF-8
Codec ID : S_TEXT/UTF8
Codec ID/Info : UTF-8 Plain Text
Duration : 1h 50mn
Bit rate : 0 bps
Count of elements : 3
Stream size : 171 Bytes (0%)
Title : FORCED
Language : Russian
Default : Yes
Forced : No
Text #2
ID : 6
Format : UTF-8
Codec ID : S_TEXT/UTF8
Codec ID/Info : UTF-8 Plain Text
Duration : 1h 50mn
Bit rate : 66 bps
Count of elements : 1245
Stream size : 53.8 KiB (0%)
Language : Russian
Default : No
Forced : No
Text #3
ID : 7
Format : UTF-8
Codec ID : S_TEXT/UTF8
Codec ID/Info : UTF-8 Plain Text
Duration : 1h 50mn
Bit rate : 66 bps
Count of elements : 1245
Stream size : 54.1 KiB (0%)
Language : Ukrainian
Default : No
Forced : No
Text #4
ID : 8
Format : UTF-8
Codec ID : S_TEXT/UTF8
Codec ID/Info : UTF-8 Plain Text
Duration : 1h 50mn
Bit rate : 41 bps
Count of elements : 1226
Stream size : 33.3 KiB (0%)
Language : English
Default : No
Forced : No
Text #5
ID : 9
Format : UTF-8
Codec ID : S_TEXT/UTF8
Codec ID/Info : UTF-8 Plain Text
Duration : 1h 45mn
Bit rate : 48 bps
Count of elements : 1331
Stream size : 37.5 KiB (0%)
Title : SDH
Language : English
Default : No
Forced : No
Menu #1
00:00:00.000 : en:00:00:00.000
00:03:48.562 : en:00:03:48.562
00:09:05.837 : en:00:09:05.837
00:16:01.335 : en:00:16:01.335
00:20:46.036 : en:00:20:46.036
00:28:43.430 : en:00:28:43.430
00:37:41.968 : en:00:37:41.968
00:45:50.957 : en:00:45:50.957
00:54:19.715 : en:00:54:19.715
00:59:47.709 : en:00:59:47.709
01:06:01.749 : en:01:06:01.749
01:13:06.132 : en:01:13:06.132
01:18:13.230 : en:01:18:13.230
01:25:02.264 : en:01:25:02.264
01:32:21.161 : en:01:32:21.161
01:43:07.431 : en:01:43:07.431
Menu #2
00:00:00.054 : en:00:00:00.054

Скриншоты

[Профиль] [ЛС]
Кто просматривает тему:

Показать сообщения:    

Текущее время: Сегодня 14:54

Часовой пояс: GMT



Вы не можете начинать темы
Вы не можете отвечать на сообщения
Вы не можете редактировать свои сообщения
Вы не можете удалять свои сообщения
Вы не можете голосовать в опросах
Вы не можете прикреплять файлы к сообщениям
Вы не можете скачивать файлы