5-я волна / The 5th Wave (2016) WEB-DL 1080p | iTunes

 
Автор Сообщение

Russian Mafia ®

Пол:

Стаж: 1 год 8 месяцев

Сообщений: 4256



Награды: 10 (Подробнее)

Mega Seeder 5 (Количество: 1) Top Releaser 4 (Количество: 1) Top Releaser 5 (Количество: 1)
Торрент-статистика

Создавать темы 06-Апр-2016 09:16

[Цитировать]

Информация о фильме
Название: 5-я волна
Оригинальное название: The 5th Wave
Год выхода: 2016
Жанр: фантастика, боевик, триллер, приключения
Режиссер: Дж. Блэйксон
В ролях: Хлоя Грейс Морец, Ник Дж. Робинсон, Рон Ливингстон, Мэгги Сифф, Алекс Роу, Мария Белло, Майка Монро, Лив Шрайбер, Закари Артур, Тони Револори
О фильме:
Есть ли жизнь за пределами фейсбука и инстаграма? Что делать, если прорвало центральный канализационный коллектор? Как распознать инопланетян среди насильников, мародеров, каннибалов и жителей спальных районов? Можно ли похудеть, объедаясь на ночь продуктами, найденными на городской свалке? На эти и другие животрепещущие вопросы предстоит найти ответы хорошей девушке Кэсси и всему молодому поколению, пытающимся отвоевать себе право на светлое будущее посреди накатывающих волн психотронного террора от инопланетных захватчиков.

Страна: США
Студия: Columbia Pictures, GK Films, Living Films, LStar Capital, Material Pictures
Продолжительность: 01:52:22
Перевод: Дублированный | iTunes
Файл
Кодек: MPEG-4
Качество: WEB-DL 1080p
Видео: 1920x802, 4404 Kbit/s, 23.976 fps
Звук:
Аудио #1: 48.0 Khz, AC3, 5.1, 384 Kbit/s | Дублированный, iTunes | RUS
Аудио #2: 48.0 Khz, AAC, 2.0, 156 Kbit/s | Оригинал | ENG
Субтитры: Английские
Релиз от:
Примечание: Без рекламы.

Media-info

Формат : Matroska
Версия формата : Version 4 / Version 2
Размер файла : 3,88 Гбайт
Продолжительность : 1 ч. 52 м.
Общий поток : 4946 Кбит/сек
Название фильма : The.5th.Wave.2016.WEB-DL.1080p
Дата кодирования : UTC 2016-04-06 05:57:12
Программа кодирования : mkvmerge v8.3.0 ('Over the Horizon') 64bit
Библиотека кодирования : libebml v1.3.1 + libmatroska v1.4.2
Обложка : Yes
Attachments : cover_land.jpg / small_cover.jpg / small_cover_land.jpg / cover.jpg
Видео
Идентификатор : 1
Формат : AVC
Формат/Информация : Advanced Video Codec
Профиль формата : High@L4
Параметр CABAC формата : Да
Параметр ReFrames формата : 5 кадров
Идентификатор кодека : V_MPEG4/ISO/AVC
Продолжительность : 1 ч. 52 м.
Битрейт : 4404 Кбит/сек
Ширина : 1920 пикселей
Высота : 802 пикселя
Соотношение сторон : 2,40:1
Режим частоты кадров : Постоянный
Частота кадров : 23,976 (23976/1000) кадра/сек
Цветовое пространство : YUV
Субдискретизация насыщенности : 4:2:0
Битовая глубина : 8 бит
Тип развёртки : Прогрессивная
Бит/(Пиксели*Кадры) : 0.119
Размер потока : 3,46 Гбайт (89%)
Язык : English
Default : Да
Forced : Нет
Цветовой диапазон : Limited
Основные цвета : BT.709
Характеристики трансфера : BT.709
Коэффициенты матрицы : BT.709
Аудио #1
Идентификатор : 2
Формат : AC-3
Формат/Информация : Audio Coding 3
Расширение режима : CM (complete main)
Параметр Endianness формата : Big
Идентификатор кодека : A_AC3
Продолжительность : 1 ч. 52 м.
Вид битрейта : Постоянный
Битрейт : 384 Кбит/сек
Каналы : 6 каналов
Расположение каналов : Front: L C R, Side: L R, LFE
Частота : 48,0 КГц
Частота кадров : 31,250 кадров/сек (1536 spf)
Метод сжатия : С потерями
Размер потока : 309 Мбайт (8%)
Язык : Russian
Default : Да
Forced : Нет
Аудио #2
Идентификатор : 3
Формат : AAC
Формат/Информация : Advanced Audio Codec
Профиль формата : LC
Идентификатор кодека : A_AAC
Продолжительность : 1 ч. 52 м.
Битрейт : 156 Кбит/сек
Каналы : 2 канала
Расположение каналов : Front: L R
Частота : 48,0 КГц
Частота кадров : 46,875 кадров/сек (1024 spf)
Метод сжатия : С потерями
Размер потока : 125 Мбайт (3%)
Язык : English
Default : Нет
Forced : Нет
Текст
Идентификатор : 4
Формат : UTF-8
Идентификатор кодека : S_TEXT/UTF8
Идентификатор кодека/Информация : UTF-8 Plain Text
Продолжительность : 1 ч. 44 м.
Битрейт : 45 бит/сек
Count of elements : 1289
Размер потока : 35,0 Кбайт (0%)
Язык : English
Default : Нет
Forced : Нет
Меню
00:00:00.000 : en:1
00:03:47.143 : en:2
00:09:05.461 : en:3
00:16:02.002 : en:4
00:20:45.660 : en:5
00:28:43.262 : en:6
00:37:41.425 : en:7
00:45:49.913 : en:8
00:54:19.005 : en:9
00:59:46.791 : en:10
01:06:01.290 : en:11
01:13:05.589 : en:12
01:18:12.437 : en:13
01:25:01.304 : en:14
01:32:20.242 : en:15
01:43:05.095 : en:16

Скриншоты

[Профиль] [ЛС]
Кто просматривает тему:

Показать сообщения:    

Текущее время: Сегодня 16:43

Часовой пояс: GMT



Вы не можете начинать темы
Вы не можете отвечать на сообщения
Вы не можете редактировать свои сообщения
Вы не можете удалять свои сообщения
Вы не можете голосовать в опросах
Вы не можете прикреплять файлы к сообщениям
Вы не можете скачивать файлы