5-я волна / The 5th Wave (Дж. Блэйксон / J. Blakeson) [2016, США, фантастика, боевик, триллер, приключения, WEB-DLRip-AVC] Dub

 
Автор Сообщение

TorrentFilm ®

Пол:

Стаж: 2 года

Сообщений: 7741



Награды: Нет

Торрент-статистика

Создавать темы 06-Апр-2016 00:09

[Цитировать]

5-я волна / The 5th Wave
«We Fight Back»
- Страна: США
Жанр: фантастика, боевик, триллер, приключения
Год выпуска: 2016
Продолжительность: 01:52:22
Перевод : Профессиональный (полное дублирование) (iTunes)
Cубтитры: нет
Режиссёр: Дж. Блэйксон / J. Blakeson
В ролях: Хлоя Грэйс Моретц, Ник Дж. Робинсон, Рон Ливингстон, Мэгги Сифф, Алекс Роу, Мария Белло, Майка Монро, Лив Шрайбер, Закари Артур, Тони Револори, Талита Бейтман, Мэттью Зук, Габриела Лопес, Бэйли Энн Бордерс, Дэйв Мальдонадо, Пол Райден, Э. Роджер Митчелл, Чармин Ли, Паркер Вьерлинг, Мэдисон Стэйнс
Описание: Первая волна оставила за собой мглу. От второй успели убежать только самые везучие. Но едва ли можно назвать везучими тех, кто уцелел после третьей. А четвертая волна стерла все человеческие законы, взамен же установила свой, один-единственный: хочешь жить — не верь никому. И вот уже накатывает пятая волна…

Качество видео: Web-DLRip-AVC (исходник - 5TH_WAY_WEB_DL_1080p-BLUEBIRD)
Формат видео: MKV
Видео: x264, 1152x480 (2,40:1), 23,976 fps, ~1480 kbps, 0.112 bit/pixel
Аудио: 48 kHz, AC3 Dolby Digital, 3/2 (L,C,R,l,r) + LFE ch, ~384 kbps

MediaInfo | x264 log

Format : Matroska
Format version : Version 4 / Version 2
File size : 1.47 GiB
Duration : 1h 52mn
Overall bit rate : 1 867 Kbps
Movie name : 5-я волна / The 5th Wave (2016) :: AFM ::
Encoded date : UTC 2016-04-05 09:06:35
Writing application : mkvmerge v8.3.0 ('Over the Horizon') 32bit
Writing library : libebml v1.3.1 + libmatroska v1.4.2
Video
ID : 1
Format : AVC
Format/Info : Advanced Video Codec
Format profile : High@L4.1
Format settings, CABAC : Yes
Format settings, ReFrames : 10 frames
Codec ID : V_MPEG4/ISO/AVC
Duration : 1h 52mn
Bit rate : 1 482 Kbps
Width : 1 152 pixels
Height : 480 pixels
Display aspect ratio : 2.40:1
Frame rate mode : Constant
Frame rate : 23.976 fps
Color space : YUV
Chroma subsampling : 4:2:0
Bit depth : 8 bits
Scan type : Progressive
Bits/(Pixel*Frame) : 0.112
Stream size : 1.13 GiB (77%)
Title : Web-DLRip by AFM
Writing library : x264 core 148 r2665+53 6629127 t_mod_Custom [8-bit@all X86_64]
Encoding settings : cabac=1 / ref=10 / deblock=1:-2:-1 / analyse=0x3:0x113 / me=umh / subme=10 / psy=1 / fade_compensate=0.00 / psy_rd=1.00:0.00 / mixed_ref=1 / me_range=32 / chroma_me=1 / trellis=2 / 8x8dct=1 / cqm=0 / deadzone=21,11 / fast_pskip=0 / chroma_qp_offset=-2 / threads=6 / lookahead_threads=1 / sliced_threads=0 / nr=0 / decimate=0 / interlaced=0 / bluray_compat=0 / constrained_intra=0 / fgo=0 / bframes=12 / b_pyramid=2 / b_adapt=2 / b_bias=0 / direct=3 / weightb=1 / open_gop=0 / weightp=2 / keyint=250 / keyint_min=23 / scenecut=40 / intra_refresh=0 / rc_lookahead=40 / rc=2pass / mbtree=0 / bitrate=1482 / ratetol=1.0 / qcomp=0.65 / qpmin=0:0:0 / qpmax=69:69:69 / qpstep=4 / cplxblur=20.0 / qblur=0.5 / vbv_maxrate=50000 / vbv_bufsize=62500 / nal_hrd=none / filler=0 / ip_ratio=1.32 / pb_ratio=1.30 / aq=1:0.90 / aq-sensitivity=10.00 / aq-factor=1.00:1.00:1.00 / aq2=0 / aq3=0
Language : English
Default : Yes
Forced : No
Audio
ID : 2
Format : AC-3
Format/Info : Audio Coding 3
Mode extension : CM (complete main)
Format settings, Endianness : Big
Codec ID : A_AC3
Duration : 1h 52mn
Bit rate mode : Constant
Bit rate : 384 Kbps
Channel(s) : 6 channels
Channel positions : Front: L C R, Side: L R, LFE
Sampling rate : 48.0 KHz
Compression mode : Lossy
Stream size : 309 MiB (21%)
Title : Dub, 5.1 ~384 kbps
Language : Russian
Default : Yes
Forced : No
Menu
00:00:00.000 : en:1
00:03:47.143 : en:2
00:09:05.461 : en:3
00:16:02.002 : en:4
00:20:45.660 : en:5
00:28:43.262 : en:6
00:37:41.425 : en:7
00:45:49.913 : en:8
00:54:19.005 : en:9
00:59:46.791 : en:10
01:06:01.290 : en:11
01:13:05.589 : en:12
01:18:12.437 : en:13
01:25:01.304 : en:14
01:32:20.242 : en:15
01:43:05.095 : en:16

x264

x264 [info]: frame I:42 Avg QP:13.51 size: 51656
x264 [info]: frame P:667 Avg QP:17.86 size: 15301
x264 [info]: frame B:1840 Avg QP:19.40 size: 3871
x264 [info]: consecutive B-frames: 4.2% 3.6% 10.9% 55.7% 8.8% 12.9% 0.5% 0.0% 0.0% 0.4% 0.4% 1.4% 1.0%
x264 [info]: mb I I16..4: 13.8% 69.3% 16.8%
x264 [info]: mb P I16..4: 2.5% 11.2% 1.6% P16..4: 41.7% 23.4% 12.4% 0.0% 0.0% skip: 7.1%
x264 [info]: mb B I16..4: 0.1% 0.5% 0.1% B16..8: 37.9% 8.4% 1.7% direct: 3.3% skip:48.0% L0:40.8% L1:51.5% BI: 7.7%
x264 [info]: 8x8 transform intra:72.2% inter:64.0%
x264 [info]: direct mvs spatial:95.2% temporal:4.8%
x264 [info]: coded y,uvDC,uvAC intra: 76.7% 66.4% 34.9% inter: 14.1% 11.3% 4.0%
x264 [info]: i16 v,h,dc,p: 30% 11% 9% 50%
x264 [info]: i8 v,h,dc,ddl,ddr,vr,hd,vl,hu: 10% 8% 6% 10% 14% 13% 14% 13% 13%
x264 [info]: i4 v,h,dc,ddl,ddr,vr,hd,vl,hu: 11% 8% 3% 11% 15% 14% 13% 11% 13%
x264 [info]: i8c dc,h,v,p: 39% 27% 19% 15%
x264 [info]: Weighted P-Frames: Y:96.1% UV:1.6%
x264 [info]: ref P L0: 54.7% 6.7% 17.3% 6.6% 5.1% 3.3% 2.6% 1.4% 1.2% 1.0% 0.2% 0.0%
x264 [info]: ref B L0: 77.9% 11.3% 4.8% 2.1% 1.6% 1.1% 0.7% 0.3% 0.2%
x264 [info]: ref B L1: 94.2% 5.8%
x264 [info]: kb/s:1467.14

Скриншотыс названием

Сравнениес .avi [url=viewtopic.php?t=5202699]http://torrentfilm.net/forum/viewtopic.php?t=5202699[/url] http://screenshotcomparison.com/comparison/168160
[Профиль] [ЛС]
Кто просматривает тему:

Показать сообщения:    

Текущее время: Сегодня 06:24

Часовой пояс: GMT



Вы не можете начинать темы
Вы не можете отвечать на сообщения
Вы не можете редактировать свои сообщения
Вы не можете удалять свои сообщения
Вы не можете голосовать в опросах
Вы не можете прикреплять файлы к сообщениям
Вы не можете скачивать файлы