5 патронов / 5 Shells (2012) WEB-DLRip 720p | L2

 
Автор Сообщение

BOSS ®

Пол:

Стаж: 2 года 10 месяцев

Сообщений: 6714

Откуда: ODESSA



Награды: 20 (Подробнее)

Mega Releaser 3 (Количество: 1) Top Keeper 4 (Количество: 1) Top Keeper 1 (Количество: 1)
Торрент-статистика

Создавать темы 13-Авг-2017 08:27

[Цитировать]

Информация о фильме
Название: 5 патронов
Оригинальное название: 5 Shells
Год выхода: 2012
Жанр: драма, фантастика
Режиссер: Пол С. Майерс / Paul S. Myers
В ролях: Чед Брамметт, Джордан Грэйди, Келси Хаттон, Ив Козиловский, Линкольн Марк
О фильме:
После смерти родителей Мэтти и Джослин остаются совсем одни в мире, разрушенном финансовым кризисом. С ружьем в руках, чувствуя на своих плечах груз ответственности за жизнь сестры, Мэтти принимает решение отправиться через постапокалиптическую пустыню в поисках нового дома.

Страна: США
Студия: Melodramatic Eagle Productions
Продолжительность: 01:27:16
Перевод: Любительский (двухголосый закадровый) DeadSno & den904
Файл
Кодек: h.264
Качество: WEB-DLRip 720p
Видео: 1280x720, 4020 kbps, 23.976 fps
Звук:
Аудио 1: Русский, AC3, 2 ch, 48 KHz, 192 kbps
Аудио 2: Английский, AAC, 2 ch, 48 KHz, 192 kbps
Субтитры: отсутствуют
Семпл

Скриншоты

MediaInfo

General
General
Unique ID : 194775113866392338526947210876839304312 (0x9288528A3A0821109365C35B981C9C78)
Complete name : D:Downloads5.Shells.2012.WEB.DL.720p.mkv
Format : Matroska
Format version : Version 4 / Version 2
File size : 2.66 GiB
Duration : 1 h 27 min
Overall bit rate : 4 359 kb/s
Encoded date : UTC 2017-08-13 05:31:26
Writing application : mkvmerge v14.0.0 ('Flow') 64bit
Writing library : libebml v1.3.4 + libmatroska v1.4.5
Video
ID : 1
Format : AVC
Format/Info : Advanced Video Codec
Format profile : High@L3.1
Format settings, CABAC : No
Format settings, ReFrames : 2 frames
Codec ID : V_MPEG4/ISO/AVC
Duration : 1 h 27 min
Bit rate : 4 020 kb/s
Width : 1 280 pixels
Height : 720 pixels
Display aspect ratio : 16:9
Frame rate mode : Constant
Frame rate : 23.976 (23976/1000) FPS
Color space : YUV
Chroma subsampling : 4:2:0
Bit depth : 8 bits
Scan type : Progressive
Bits/(Pixel*Frame) : 0.182
Stream size : 2.45 GiB (92%)
Language : English
Default : Yes
Forced : No
Color range : Limited
Color primaries : BT.709
Transfer characteristics : BT.709
Matrix coefficients : BT.709
Audio #1
ID : 2
Format : AC-3
Format/Info : Audio Coding 3
Format settings, Endianness : Big
Codec ID : A_AC3
Duration : 1 h 27 min
Bit rate mode : Constant
Bit rate : 192 kb/s
Channel(s) : 2 channels
Channel positions : Front: L R
Sampling rate : 48.0 kHz
Frame rate : 31.250 FPS (1536 spf)
Bit depth : 16 bits
Compression mode : Lossy
Stream size : 120 MiB (4%)
Title : Влад и Снежинка
Language : Russian
Service kind : Complete Main
Default : Yes
Forced : Yes
Audio #2
ID : 3
Format : AAC
Format/Info : Advanced Audio Codec
Format profile : LC
Codec ID : A_AAC
Duration : 1 h 27 min
Bit rate : 144 kb/s
Channel(s) : 2 channels
Channel positions : Front: L R
Sampling rate : 48.0 kHz
Frame rate : 46.875 FPS (1024 spf)
Compression mode : Lossy
Stream size : 89.8 MiB (3%)
Language : English
Default : No
Forced : No
Menu
00:00:00.000 : en:Opening Sequence
00:04:59.000 : en:We're leaving
00:11:32.000 : en:You hungry?
00:15:52.000 : en:Who are you?
00:21:58.000 : en:Got your appetite back
00:28:52.000 : en:Tools for a gentleman
00:33:21.000 : en:Good place to stop
00:39:20.000 : en:Do you want to drive?
00:43:47.000 : en:There's nobody in there
00:49:17.000 : en:Watching TV
00:55:27.000 : en:Ample supply
01:00:06.000 : en:It's not fair
01:05:23.000 : en:We're going home
01:10:18.000 : en:It's better with three
01:19:45.000 : en:What happened?
01:25:31.000 : en:Closing credits
[Профиль] [ЛС]
Кто просматривает тему:

Показать сообщения:    

Текущее время: Сегодня 05:54

Часовой пояс: GMT



Вы не можете начинать темы
Вы не можете отвечать на сообщения
Вы не можете редактировать свои сообщения
Вы не можете удалять свои сообщения
Вы не можете голосовать в опросах
Вы не можете прикреплять файлы к сообщениям
Вы не можете скачивать файлы