47 ронинов / 47 Ronin (Карл Ринш / Carl Rinsch) [2013, фэнтези, боевик, приключения, HDRip] Лицензия

 
Автор Сообщение

Richi Keeper ®

Пол:

Стаж: 1 год 6 месяцев

Сообщений: 57

Откуда: Томская область



Награды: Нет

Торрент-статистика

Создавать темы 16-Май-2015 06:57

[Цитировать]

47 ронинов
47 Ronin
- Год выпуска: 2013
Страна: США (H2F Entertainment, Mid Atlantic Films, Moving Picture Company, Stuber Productions)
Жанр: Фэнтези, боевик, приключения
Продолжительность: 01:58:43
Перевод: Профессиональный (дублированный) [Лицензия]

Cубтитры: нет-Режиссер: Карл Ринш / Carl Rinsch-В ролях: Киану Ривз, Хироюки Санада, Ко Шибасаки, Таданобу Асано, Мин Танака, Джин Аканиши, Масаёси Ханеда, Хироси Согабэ, Такато Йонемото, Хироси Ямада-Описание: Таинственный странник, преданный всеми, проданный в рабство, избранный судьбой вершить месть, станет одним из 47 воинов, бросивших вызов смерти. Явившись из другого мира, он восстанет против темных сил, чтобы защитить свою запретную любовь.- -Качество: HDRip
Формат: AVI
Видео кодек: XVID
Аудио кодек: AC3
Видео: 720x304 (2.37:1), 23.976 fps, XviD build 73 ~1290 kbps avg, 0.25 bit/pixel
Аудио: 48 kHz, AC3 Dolby Digital, 3/2 (L,C,R,l,r) + LFE ch, ~448.00 kbps avg-

Знаете ли Вы, что...

  • По словам Киану Ривза, специально ради актеров второго плана съемки сначала проходили на японском и уже затем на английском языке.
  • Вместе с Киану Ривзом роли были отданы пяти японским актерам (Хироюки Санада, Таданобу Асано, Ринко Кикути, Ко Шибасаки и Джин Аканиши), чтобы сделать историю более достоверной, вместо того, чтобы выбрать актеров, узнаваемых в США.
  • Стрелы для фильма были сделаны известным европейским мастером Майклом Рипом (Michael Reape). Небольшое количество стрел было выполнено в «музейном» качестве для съемки крупным планом.
  • Это режиссерский дебют Карла Ринша.
  • По словам художника по костюмам Пенни Роуз, у всех были костюмы, подогнанные в соответствии с фоном: «Основываясь на культуре, форма одежды должна была быть одной — кимоно, но мы совершили своего рода «модный» переворот в этом направлении и добавили различных цветов».
  • Специально для фильма на съемочную площадку в Лондон из Италии привезли 300 побегов бамбука, каждый высотой по 15 метров, и метровые деревья бонсай возрастом более ста лет.

Log/MediaInfoLog

D:\Кино\47_roninov_2013_HDRip_r5+_[scarabey.org].avi
General
Complete name : D:\Кино\47_roninov_2013_HDRip_r5+_[scarabey.org].avi
Format : AVI
Format/Info : Audio Video Interleave
File size : 1.46 GiB
Duration : 1h 58mn
Overall bit rate : 1 757 Kbps
Writing application : VirtualDubMod 1.5.10.2 (build 2540/release)
Writing library : VirtualDubMod build 2540/release
Video #0
ID : 0
Format : MPEG-4 Visual
Format profile : Advanced Simple@L5
Format settings, BVOP : 2
Format settings, QPel : No
Format settings, GMC : No warppoints
Format settings, Matrix : Custom
Codec ID : XVID
Codec ID/Hint : XviD
Duration : 1h 58mn
Bit rate : 1 492 Kbps
Width : 720 pixels
Height : 304 pixels
Display aspect ratio : 2.35:1
Frame rate : 23.976 fps
Color space : YUV
Chroma subsampling : 4:2:0
Bit depth : 8 bits
Scan type : Progressive
Compression mode : Lossy
Bits/(Pixel*Frame) : 0.284
Stream size : 1.24 GiB (85%)
Writing library : XviD 1.2.1 (UTC 2008-12-04)
Audio #1
ID : 1
Format : AC-3
Format/Info : Audio Coding 3
Mode extension : CM (complete main)
Format settings, Endianness : Big
Codec ID : 2000
Duration : 1h 58mn
Bit rate mode : Constant
Bit rate : 256 Kbps
Channel(s) : 2 channels
Channel positions : Front: L R
Sampling rate : 48.0 KHz
Bit depth : 16 bits
Compression mode : Lossy
Stream size : 217 MiB (15%)
Alignment : Split accross interleaves
Interleave, duration : 42 ms (1.00 video frame)
Interleave, preload duration : 500 ms

Скриншоты


[Профиль] [ЛС]

Создавать темы 06-Авг-2015 22:32 (спустя 2 месяца 21 день)

Топик был перенесен из форума Фильмы до 2014 года в форум Фильмы 2013 года
sergej644
 
Кто просматривает тему:

Показать сообщения:    

Текущее время: Сегодня 20:58

Часовой пояс: GMT



Вы не можете начинать темы
Вы не можете отвечать на сообщения
Вы не можете редактировать свои сообщения
Вы не можете удалять свои сообщения
Вы не можете голосовать в опросах
Вы не можете прикреплять файлы к сообщениям
Вы не можете скачивать файлы