47 ронинов в 3Д / 47 Ronin 3D (Карл Ринш / Carl Rinsch) [2013, Фэнтези, Боевик, Приключения, BDrip-AVC] Half SideBySide / Горизонтальная анаморфная стереопара

 
Автор Сообщение

TorrentFilm ®

Пол:

Стаж: 1 год 11 месяцев

Сообщений: 7741



Награды: Нет

Торрент-статистика

Создавать темы 01-Янв-2016 00:23

[Цитировать]

47 ронинов в 3Д / 47 Ronin 3D
Год выпуска: 2013
Страна: США
Жанр: фэнтези, боевик, приключения
Продолжительность: 01:58:43
Перевод: Профессиональный (полное дублирование) |iTunes + Mic|
Режиссер: Карл Ринш
В ролях: Киану Ривз, Хироюки Санада, Ко Шибасаки, Таданобу Асано, Мин Танака, Джин Аканиши, Масаёси Ханеда, Хироси Согабэ, Такато Йонемото, Хироси Ямада
Описание: Таинственный странник, преданный всеми, проданный в рабство, избранный судьбой вершить месть, станет одним из 47 воинов, бросивших вызов смерти. Явившись из другого мира, он восстанет против темных сил, чтобы защитить свою запретную любовь.
Формат 3D: Half SideBySide / Горизонтальная анаморфная стереопара
Порядок ракурсов: левый ракурс первый
Качество: BDRip
Контейнер: MKV
Видео кодек: x264
Аудио кодек: AC3
Видео: MPEG-4 AVC, 13,2 Мбит/с, 1920х1080, 23,976 кадр/с
Аудио 1Русский / AC3 / 48 KHz / 6 ch / 384 Kbps (Дубляж - iTunes)
Аудио 2: Українська / AC3 / 48 KHz / 2 ch / 192 Kbps (Дубляж - Mic)
Аудио 3: English / AC3 / 48 KHz / 6 ch / 384 Kbps (Original)

Скриншоты


MediaInfo

Общее
Уникальный идентификатор : 254302297792132278107879738027348374969 (0xBF50D74D609A6F5F9C9C2A6EE40CB5B9)
Полное имя : D:\Download\47 Ronin 3D 2013 BDRip 1080p halfSbS [3d-tracker.ru].mkv
Формат : Matroska
Версия формата : Version 2
Размер файла : 11,7 Гбайт
Продолжительность : 1 ч. 58 м.
Общий поток : 14,2 Мбит/сек
Название фильма : 3d-tracker.ru
Дата кодирования : UTC 2014-04-10 10:06:57
Программа кодирования : mkvmerge v4.0.0 ('The Stars were mine') сборка от Jun 6 2010 16:18:42
Библиотека кодирования : libebml v1.0.0 + libmatroska v1.0.0
Видео
Идентификатор : 1
Формат : AVC
Формат/Информация : Advanced Video Codec
Профиль формата : High@L4.1
Параметр CABAC формата : Да
Параметр ReFrames формата : 4 кадра
Идентификатор кодека : V_MPEG4/ISO/AVC
Продолжительность : 1 ч. 58 м.
Битрейт : 13,2 Мбит/сек
Ширина : 1920 пикселей
Высота : 1080 пикселей
Соотношение сторон : 16:9
Режим частоты кадров : Постоянный
Частота кадров : 23,976 кадра/сек
Цветовое пространство : YUV
Субдискретизация насыщенности : 4:2:0
Битовая глубина : 8 бит
Тип развёртки : Прогрессивная
Бит/(Пиксели*Кадры) : 0.266
Размер потока : 10,7 Гбайт (91%)
Заголовок : 3d-tracker.ru
Библиотека кодирования : x264 core 140 r2377 1ca7bb9
Настройки программы : cabac=1 / ref=4 / deblock=1:-3:-3 / analyse=0x3:0x133 / me=esa / subme=9 / psy=1 / psy_rd=0.90:0.00 / mixed_ref=1 / me_range=24 / chroma_me=1 / trellis=1 / 8x8dct=1 / cqm=0 / deadzone=21,11 / fast_pskip=0 / chroma_qp_offset=-2 / threads=12 / lookahead_threads=1 / sliced_threads=0 / nr=0 / decimate=1 / interlaced=0 / bluray_compat=0 / constrained_intra=0 / bframes=5 / b_pyramid=2 / b_adapt=2 / b_bias=0 / direct=3 / weightb=1 / open_gop=0 / weightp=2 / keyint=96 / keyint_min=9 / scenecut=40 / intra_refresh=0 / rc_lookahead=40 / rc=2pass / mbtree=0 / bitrate=13200 / ratetol=1.0 / qcomp=0.60 / qpmin=0 / qpmax=69 / qpstep=4 / cplxblur=20.0 / qblur=0.5 / vbv_maxrate=40000 / vbv_bufsize=30000 / nal_hrd=none / filler=0 / frame-packing=3 / ip_ratio=1.40 / pb_ratio=1.30 / aq=1:0.80
Язык : English
Default : Нет
Forced : Нет
Аудио #1
Идентификатор : 2
Формат : AC-3
Формат/Информация : Audio Coding 3
Расширение режима : CM (complete main)
Параметр Endianness формата : Big
Идентификатор кодека : A_AC3
Продолжительность : 1 ч. 58 м.
Вид битрейта : Постоянный
Битрейт : 384 Кбит/сек
Каналы : 6 каналов
Расположение каналов : Front: L C R, Side: L R, LFE
Частота : 48,0 КГц
Битовая глубина : 16 бит
Метод сжатия : С потерями
Размер потока : 326 Мбайт (3%)
Заголовок : 3d-tracker.ru
Язык : Russian
Default : Да
Forced : Да
Аудио #2
Идентификатор : 3
Формат : AC-3
Формат/Информация : Audio Coding 3
Расширение режима : CM (complete main)
Параметр Endianness формата : Big
Идентификатор кодека : A_AC3
Продолжительность : 1 ч. 58 м.
Вид битрейта : Постоянный
Битрейт : 192 Кбит/сек
Каналы : 2 канала
Расположение каналов : Front: L R
Частота : 48,0 КГц
Битовая глубина : 16 бит
Метод сжатия : С потерями
Размер потока : 163 Мбайт (1%)
Заголовок : 3d-tracker.ru
Язык : Ukrainian
Default : Нет
Forced : Нет
Аудио #3
Идентификатор : 4
Формат : AC-3
Формат/Информация : Audio Coding 3
Расширение режима : CM (complete main)
Параметр Endianness формата : Big
Идентификатор кодека : A_AC3
Продолжительность : 1 ч. 58 м.
Вид битрейта : Постоянный
Битрейт : 384 Кбит/сек
Каналы : 6 каналов
Расположение каналов : Front: L C R, Side: L R, LFE
Частота : 48,0 КГц
Битовая глубина : 16 бит
Метод сжатия : С потерями
Размер потока : 326 Мбайт (3%)
Заголовок : 3d-tracker.ru
Язык : English
Default : Нет
Forced : Нет
Меню
00:00:00.000 : en:1 - 0:00:00
00:04:27.559 : en:2 - 0:04:27
00:11:12.088 : en:3 - 0:11:12
00:16:27.820 : en:4 - 0:16:27
00:20:11.836 : en:5 - 0:20:11
00:26:52.319 : en:6 - 0:26:52
00:31:02.944 : en:7 - 0:31:02
00:36:10.627 : en:8 - 0:36:10
00:43:36.614 : en:9 - 0:43:36
00:50:14.511 : en:10 - 0:50:14
00:54:59.421 : en:11 - 0:54:59
00:59:54.049 : en:12 - 0:59:54
01:09:57.735 : en:13 - 1:09:57
01:13:59.018 : en:14 - 1:13:59
01:19:12.247 : en:15 - 1:19:12
01:24:17.386 : en:16 - 1:24:17
01:33:00.825 : en:17 - 1:33:00
01:38:55.555 : en:18 - 1:38:55
01:44:41.609 : en:19 - 1:44:41
01:48:38.303 : en:20 - 1:48:38
10.04.2014 Раздача обновлена.
Русская звуковая дорожка "чистый звук" заменена на лицензионный iTunes.
Добавлена украинская звуковая дорожка Mic.
Желающие, скачайте заново торрент-файл.
[Профиль] [ЛС]
Кто просматривает тему:

Показать сообщения:    

Текущее время: Сегодня 04:58

Часовой пояс: GMT



Вы не можете начинать темы
Вы не можете отвечать на сообщения
Вы не можете редактировать свои сообщения
Вы не можете удалять свои сообщения
Вы не можете голосовать в опросах
Вы не можете прикреплять файлы к сообщениям
Вы не можете скачивать файлы