451° (Анастасия Чернова) [2012, Рисованный мультфильм, WEBRip]

 
Автор Сообщение

TorrentFilm ®

Пол:

Стаж: 2 года

Сообщений: 7741



Награды: Нет

Торрент-статистика

Создавать темы 15-Сен-2015 00:11

[Цитировать]

451°
Страна: Россия
Жанр: Рисованный мультфильм
Продолжительность: 00:06:29
Год выпуска: 2012
Русские субтитры: нет
Режиссёр: Анастасия Чернова
Описание: По мотивам романа Рэя Бредбери «451° по Фаренгейту». В мире, где лучи света больше не достают до земли, книги вне закона и подлежат сожжению. Главный герой был одним из многих обезличенных, беспрекословно исполняющих приказ людей, пока не услышал «голос книги».
Доп. информация: «ВГИК»
Раздача группы:
Качество: WEBRip
Формат: AVI
Видео: 720x400 (1.80:1), 25 fps, XviD build 50 ~1185 kbps avg, 0.16 bit/pixel
Аудио: 44.100 kHz, MPEG Layer 3, 2 ch, ~192.00 kbps avg
Субтитры: нет

Подробные технические данные

Format : AVIFormat/Info : Audio Video InterleaveFile size : 64.6 MiBDuration : 6mn 29sOverall bit rate : 1 390 KbpsWriting application : MEncoder SVN-r30881(20100311-gcc4.3.3)Writing library : MPlayer
VideoID : 0Format : MPEG-4 VisualFormat profile : Advanced Simple@L5Format settings, BVOP : 2Format settings, QPel : NoFormat settings, GMC : No warppointsFormat settings, Matrix : Default (H.263)Codec ID : XVIDCodec ID/Hint : XviDDuration : 6mn 29sBit rate : 1 186 KbpsWidth : 720 pixelsHeight : 400 pixelsDisplay aspect ratio : 16:9Original display aspect ratio : 16:9Frame rate : 25.000 fpsColor space : YUVChroma subsampling : 4:2:0Bit depth : 8 bitsScan type : ProgressiveCompression mode : LossyBits/(Pixel*Frame) : 0.165Stream size : 55.1 MiB (85%)Writing library : XviD 1.2.1 (UTC 2008-12-04)
AudioID : 1Format : MPEG AudioFormat version : Version 1Format profile : Layer 3Mode : Joint stereoMode extension : MS StereoCodec ID : 55Codec ID/Hint : MP3Duration : 6mn 29sBit rate mode : ConstantBit rate : 192 KbpsChannel(s) : 2 channelsSampling rate : 44.1 KHzCompression mode : LossyDelay relative to video : 40msStream size : 8.92 MiB (14%)Alignment : Aligned on interleavesInterleave, duration : 26 ms (0.65 video frame)Interleave, preload duration : 522 msWriting library : LAME3.98

Скриншоты

[Профиль] [ЛС]
Кто просматривает тему:

Показать сообщения:    

Текущее время: Сегодня 22:18

Часовой пояс: GMT



Вы не можете начинать темы
Вы не можете отвечать на сообщения
Вы не можете редактировать свои сообщения
Вы не можете удалять свои сообщения
Вы не можете голосовать в опросах
Вы не можете прикреплять файлы к сообщениям
Вы не можете скачивать файлы