400 дней / 400 Days (2015) BDRip 720p | L2

 
Автор Сообщение

BOSS ®

Пол:

Стаж: 2 года 1 месяц

Сообщений: 3718

Откуда: ODESSA



Награды: 20 (Подробнее)

Top Releaser 4 (Количество: 1) Mega Seeder 5 (Количество: 1) Mega Seeder 3 (Количество: 1)
Торрент-статистика

Создавать темы 30-Ноя-2015 11:52

[Цитировать]

Информация о фильме
Название: 400 дней
Оригинальное название: 400 Days
Год выхода: 2015
Жанр: фантастика, триллер, детектив
Режиссёр: Мэтт Остерман
В полях: Фрэнк Эшмор, Люк Барнетт, Доминик Богарт, Грант Боулер, Rene Bremond, Томас Кэвэна, Дейн Кук, Nicole Derseweh, Gretchen Dickason, Ким Эстес
О фильме: Сюжет вращается вокруг астронавтов, отправившихся на симуляторе в путешествие по направлению к далекой планете. Цель этого эксперимента состоит в том, чтобы проверить членов экипажа космического корабля на психологическую совместимость во время длительного полета. Вскоре психика астронавтов дает сбой, и, оказавшись за бортом, они начинают понимать, что полет вовсе не был тренировочным.

Выпущено: США / New Artists Alliance
Продолжительность: 01:30:17
Озвучивание: Любительское (двухголосое) [Sunshine Studio]
Файл
Формат: MKV
Качество: BDRip 720p
Видео: MPEG-4 AVC, 5427 kb/s, 1280x720
Аудио: Russian: AC3, 192 kb/s (2 ch) / English: DTS, 1510 kb/s (6 ch)

MI

Format : Matroska
Format version : Version 2
File size : 4.49 GiB
Duration : 1h 30mn
Overall bit rate : 7 113 Kbps
Encoded date : UTC 2015-11-30 10:58:23
Writing application : mkvmerge v7.8.0 ('River Man') 32bit built on Apr 3 2015 12:11:22
Writing library : libebml v1.3.1 + libmatroska v1.4.2
Video
ID : 1
Format : AVC
Format/Info : Advanced Video Codec
Format profile : High@L4.1
Format settings, CABAC : Yes
Format settings, ReFrames : 9 frames
Codec ID : V_MPEG4/ISO/AVC
Duration : 1h 30mn
Bit rate : 5 427 Kbps
Width : 1 280 pixels
Height : 720 pixels
Display aspect ratio : 16:9
Frame rate mode : Constant
Frame rate : 23.976 fps
Color space : YUV
Chroma subsampling : 4:2:0
Bit depth : 8 bits
Scan type : Progressive
Bits/(Pixel*Frame) : 0.246
Stream size : 3.32 GiB (74%)
Writing library : x264 core 148 r2638 7599210
Encoding settings : cabac=1 / ref=9 / deblock=1:-3:-3 / analyse=0x3:0x113 / me=tesa / subme=10 / psy=1 / psy_rd=1.05:0.00 / mixed_ref=1 / me_range=36 / chroma_me=1 / trellis=2 / 8x8dct=1 / cqm=0 / deadzone=6,6 / fast_pskip=0 / chroma_qp_offset=-2 / threads=12 / lookahead_threads=2 / sliced_threads=0 / nr=0 / decimate=0 / interlaced=0 / bluray_compat=0 / constrained_intra=0 / bframes=9 / b_pyramid=2 / b_adapt=2 / b_bias=0 / direct=3 / weightb=1 / open_gop=0 / weightp=2 / keyint=250 / keyint_min=23 / scenecut=40 / intra_refresh=0 / rc=2pass / mbtree=0 / bitrate=5427 / ratetol=1.0 / qcomp=0.80 / qpmin=0 / qpmax=69 / qpstep=4 / cplxblur=20.0 / qblur=0.5 / ip_ratio=1.10 / pb_ratio=1.10 / aq=3:0.70
Language : English
Default : Yes
Forced : No
Audio #1
ID : 2
Format : AC-3
Format/Info : Audio Coding 3
Mode extension : CM (complete main)
Format settings, Endianness : Big
Codec ID : A_AC3
Duration : 1h 30mn
Bit rate mode : Constant
Bit rate : 192 Kbps
Channel(s) : 2 channels
Channel positions : Front: L R
Sampling rate : 48.0 KHz
Bit depth : 16 bits
Compression mode : Lossy
Stream size : 124 MiB (3%)
Language : Russian
Default : Yes
Forced : No
Audio #2
ID : 3
Format : DTS
Format/Info : Digital Theater Systems
Mode : 16
Format settings, Endianness : Big
Codec ID : A_DTS
Duration : 1h 30mn
Bit rate mode : Constant
Bit rate : 1 509 Kbps
Channel(s) : 6 channels
Channel positions : Front: L C R, Side: L R, LFE
Sampling rate : 48.0 KHz
Bit depth : 24 bits
Compression mode : Lossy
Stream size : 974 MiB (21%)
Language : English
Default : No
Forced : No
Menu
00:00:00.000 : en:00:00:00.000
00:15:06.405 : en:00:15:06.405
00:26:24.625 : en:00:26:24.625
00:44:41.762 : en:00:44:41.762
00:56:52.909 : en:00:56:52.909
01:10:20.383 : en:01:10:20.383
01:27:51.183 : en:01:27:51.183

Скриншоты



[Профиль] [ЛС]
Показать сообщения:    

Текущее время: Сегодня 22:09

Часовой пояс: GMT



Вы не можете начинать темы
Вы не можете отвечать на сообщения
Вы не можете редактировать свои сообщения
Вы не можете удалять свои сообщения
Вы не можете голосовать в опросах
Вы не можете прикреплять файлы к сообщениям
Вы не можете скачивать файлы