4 дня в мае / 4 Tage im Mai (Ахим фон Боррис / Achim von Borries) [2011, Германия, Россия, Украина, драма, военный, BDRip 720p]

 
Автор Сообщение

TorrentFilm ®

Пол:

Стаж: 2 года

Сообщений: 7741



Награды: Нет

Торрент-статистика

Создавать темы 01-Янв-2016 00:05

[Цитировать]

4 дня в мае / 4 Tage im Mai-«Иногда граница проходит не между своими и чужими, а между добром и злом»- Страна: Германия, Россия, Украина
Жанр: драма, военный
Год выпуска: 2011
Продолжительность: 01:37:18-Оригинальная аудиодорожка: Русская-Режиссёр: Ахим фон Боррис / Achim von Borries-В ролях: Павел Вензел, Алексей Гуськов, Иван Шведов, Андрей Мерзликин, Сергей Легостаев, Максим Ковалевский, Евгений Ситохин, Владимир Свирский, Григорий Добрыгин, Анджелина Хэнч-Описание: Группу русских солдат отправляют в Северную Германию в конце Второй мировой войны, где они занимают детский дом в непосредственной близости от большой немецкой части. Несмотря на все разногласия здесь формируется дружба между немецким сиротой и бездетным советским капитаном.-Доп. инфо: Релиз от -Исходник: 4 Dnja v Mae 2011 Blu-ray AVC DTS-HD MA 5.1 TrueHD 5.1 - BLUEBIRD
Тип релиза: BDRip (NiP)
Контейнер: MKV
Видео: H264 / 9010 kbps / 1280x694 / 24 fps / L 4.1
Аудио : Русский / Dolby Digital / 5.1 / 640 kbps / 48 kHz
Чаптеры: есть
-Source vs Encode


MediaInfo

Полное имя                       : 4.Dnja.v.Mae.2011.Blu-ray.720p.x264-NiP.mkv
Формат                           : Matroska
Версия формата                   : Version 2
Размер файла                     : 6,56 Гбайт
Продолжительность                : 1 ч. 37 м.
Общий поток                      : 9652 Кбит/сек
Название фильма                  : HANSMER
Дата кодирования                 : UTC 2012-03-08 15:05:50
Программа кодирования            : mkvmerge v5.3.0 ('I could have danced') built on Feb  9 2012 10:38:07
Библиотека кодирования           : libebml v1.2.3 + libmatroska v1.3.0
Видео
Идентификатор                    : 1
Формат                           : AVC
Формат/Информация                : Advanced Video Codec
Профиль формата                  : High@L4.1
Параметр CABAC формата           : Да
Параметр ReFrames формата        : 9 кадров
Идентификатор кодека             : V_MPEG4/ISO/AVC
Продолжительность                : 1 ч. 37 м.
Битрейт                          : 9012 Кбит/сек
Ширина                           : 1280 пикселей
Высота                           : 694 пикселя
Соотношение сторон               : 16:9
Частота кадров                   : 24,000 кадра/сек
Цветовое пространство            : YUV
Субдискретизация насыщенности    : 4:2:0
Битовая глубина                  : 8 бит
Тип развёртки                    : Прогрессивная
Бит/(Пиксели*Кадры)              : 0.423
Размер потока                    : 5,99 Гбайт (91%)
Заголовок                        : 4.Dnja.v.Mae.2011.Blu-ray.720p.x264-NiP
Библиотека кодирования           : x264 core 120 r2164 da19765
Настройки программы              : cabac=1 / ref=9 / deblock=1:-2:-2 / analyse=0x3:0x113 / me=tesa / subme=11 / psy=1 / psy_rd=0.95:0.00 / mixed_ref=1 / me_range=24 / chroma_me=1 / trellis=2 / 8x8dct=1 / cqm=0 / deadzone=21,11 / fast_pskip=0 / chroma_qp_offset=-2 / threads=12 / sliced_threads=0 / nr=0 / decimate=0 / interlaced=0 / bluray_compat=0 / constrained_intra=0 / bframes=7 / b_pyramid=2 / b_adapt=2 / b_bias=0 / direct=3 / weightb=1 / open_gop=0 / weightp=2 / keyint=240 / keyint_min=24 / scenecut=40 / intra_refresh=0 / rc_lookahead=60 / rc=2pass / mbtree=0 / bitrate=9012 / ratetol=1.0 / qcomp=0.60 / qpmin=0 / qpmax=69 / qpstep=4 / cplxblur=20.0 / qblur=0.5 / vbv_maxrate=50000 / vbv_bufsize=62500 / nal_hrd=none / ip_ratio=1.40 / pb_ratio=1.30 / aq=1:0.80
Язык                             : Russian
Коэффициенты матрицы             : BT.709-5, BT.1361, IEC 61966-2-4 709, SMPTE RP177
Аудио
Идентификатор                    : 2
Формат                           : AC-3
Формат/Информация                : Audio Coding 3
Расширение режима                : CM (complete main)
Идентификатор кодека             : A_AC3
Продолжительность                : 1 ч. 37 м.
Вид битрейта                     : Постоянный
Битрейт                          : 640 Кбит/сек
Каналы                           : 6 каналов
Расположение каналов             : Front: L C R, Side: L R, LFE
Частота                          : 48,0 КГц
Битовая глубина                  : 16 бит
Метод сжатия                     : С потерями
Размер потока                    : 445 Мбайт (7%)
Язык                             : Russian
Меню
00:00:00.000                     : ru:Глава 1
00:08:52.083                     : ru:Глава 2
00:16:41.167                     : ru:Глава 3
00:25:38.583                     : ru:Глава 4
00:34:17.750                     : ru:Глава 5
00:42:19.792                     : ru:Глава 6
00:51:13.125                     : ru:Глава 7
00:59:37.708                     : ru:Глава 8
01:07:41.042                     : ru:Глава 9
01:15:30.125                     : ru:Глава 10
01:23:46.375                     : ru:Глава 11
01:32:02.083                     : ru:Глава 12
[Профиль] [ЛС]
Кто просматривает тему:

Показать сообщения:    

Текущее время: Сегодня 00:32

Часовой пояс: GMT



Вы не можете начинать темы
Вы не можете отвечать на сообщения
Вы не можете редактировать свои сообщения
Вы не можете удалять свои сообщения
Вы не можете голосовать в опросах
Вы не можете прикреплять файлы к сообщениям
Вы не можете скачивать файлы