365: BBC: Свидетельства Атлантиды / Atlantis: The Evidence (Натали Майнес / Natalie Maynes) [2010 г., документальный, история Древнего мира, SATRip]

 
Автор Сообщение

skorpionN ®

Пол:

Стаж: 1 год 8 месяцев

Сообщений: 592



Награды: 4 (Подробнее)

Mega Seeder 3 (Количество: 1) Mega Seeder 2 (Количество: 1) Top Releaser 2 (Количество: 1)
Торрент-статистика

Создавать темы 26-Сен-2015 10:52

[Цитировать]

365: BBC: Свидетельства Атлантиды / Atlantis: The Evidence
Год выпуска: 2010
Страна: Великобритания,
Жанр: документальный, история Древнего мира
Продолжительность: 00:49:22
Перевод: Профессиональный (двухголосый)
Режиссер: Натали Майнес / Natalie Maynes
В ролях: Bettany Hughes
Описание: Атлантида - сказочно богатый остров, исчезнувший в морской пучине. Но существовал ли он на самом деле и где, до сих пор остается загадкой. Сегодня эксперты считают, что нашли настоящую Атлантиду.
Доп. информация: студия "SDI Media" по заказу ТПО "Ред Медиа"
Качество: SATRip
Формат: AVI
Видео кодек: DivX
Аудио кодек: AC3
Видео: 720x400 25fps 1800kbps
Аудио: AC3, 2 ch, 192kbps

Скриншоты


MediaInfo:

Format : AVI
Format/Info : Audio Video Interleave
File size : 709 MiB
Duration : 49mn 22s
Overall bit rate : 2 007 Kbps
Writing application : VirtualDubMod 1.5.10.3 | www.virtualdub-fr.org || (build 2550/release)
Writing library : VirtualDubMod build 2550/release
Video
ID : 0
Format : MPEG-4 Visual
Format profile : Advanced Simple@L5
Format settings, BVOP : 1
Format settings, QPel : No
Format settings, GMC : No warppoints
Format settings, Matrix : Default (MPEG)
Codec ID : DX50
Codec ID/Hint : DivX 5
Duration : 49mn 22s
Bit rate : 1 805 Kbps
Width : 720 pixels
Height : 400 pixels
Display aspect ratio : 16:9
Frame rate : 25.000 fps
Color space : YUV
Chroma subsampling : 4:2:0
Bit depth : 8 bits
Scan type : Progressive
Compression mode : Lossy
Bits/(Pixel*Frame) : 0.251
Stream size : 638 MiB (90%)
Writing library : XviD 1.2.1 (UTC 2008-12-04)
Audio
ID : 1
Format : AC-3
Format/Info : Audio Coding 3
Mode extension : CM (complete main)
Format settings, Endianness : Big
Codec ID : 2000
Duration : 49mn 22s
Bit rate mode : Constant
Bit rate : 192 Kbps
Channel(s) : 2 channels
Channel positions : Front: L R
Sampling rate : 48.0 KHz
Bit depth : 16 bits
Compression mode : Lossy
Stream size : 67.8 MiB (10%)
Alignment : Split accross interleaves
Interleave, duration : 40 ms (1.00 video frame)
Interleave, preload duration : 500 ms


Последний раз редактировалось: skorpionN (2015-09-27 06:18), всего редактировалось 1 раз
[Профиль] [ЛС]

KiruhaDelMar

Стаж: 1 год 8 месяцев

Сообщений: 248



Награды: Нет

Торрент-статистика

Создавать темы 26-Сен-2015 15:38 (спустя 4 часа)

[Цитировать]

А на рутрекере проверить слабо ?
На ютюбе кстате тоже есть tease
[Профиль] [ЛС]

skorpionN ®

Пол:

Стаж: 1 год 8 месяцев

Сообщений: 592



Награды: 4 (Подробнее)

Mega Seeder 3 (Количество: 1) Mega Seeder 2 (Количество: 1) Mega Seeder 1 (Количество: 1)
Торрент-статистика

Создавать темы 26-Сен-2015 16:23 (спустя 44 минуты)

[Цитировать]

Чего то я не слышал этих вопросиков покуда сайтик твой жив был bk
[Профиль] [ЛС]

KiruhaDelMar

Стаж: 1 год 8 месяцев

Сообщений: 248



Награды: Нет

Торрент-статистика

Создавать темы 26-Сен-2015 19:29 (спустя 3 часа)

[Цитировать]

да ладно. а если найду? by
[Профиль] [ЛС]

KiruhaDelMar

Стаж: 1 год 8 месяцев

Сообщений: 248



Награды: Нет

Торрент-статистика

Создавать темы 26-Сен-2015 19:31 (спустя 2 минуты)

[Цитировать]

пора браться за твое воспитание, халтурить начал по самые небалуйся
[Профиль] [ЛС]
Кто просматривает тему:

Показать сообщения:    

Текущее время: Сегодня 16:54

Часовой пояс: GMT



Вы не можете начинать темы
Вы не можете отвечать на сообщения
Вы не можете редактировать свои сообщения
Вы не можете удалять свои сообщения
Вы не можете голосовать в опросах
Вы не можете прикреплять файлы к сообщениям
Вы не можете скачивать файлы