365: Тайны истории / Secrets d'Histoire [сезон 8 выпуски 3,12,14-16 из 16] (Жан-Кристоф де Ревьер / Jean-Christophe de Revière) [2014 г., Документальный, история, научно-популярный, SATRip]

 
Автор Сообщение

skorpionN ®

Пол:

Стаж: 1 год 8 месяцев

Сообщений: 592



Награды: 4 (Подробнее)

Mega Seeder 3 (Количество: 1) Mega Seeder 1 (Количество: 1) Mega Seeder 2 (Количество: 1)
Торрент-статистика

Создавать темы 20-Ноя-2015 20:07

[Цитировать]

365: Тайны истории / Secrets d'Histoire [сезон 8 выпуск 3,12,14-16 из 16]
Год выпуска: 2014
Страна: Франция, Societe Europeenne de Production France Televisions
Жанр: Документальный, история, научно-популярный
Продолжительность: 5x~01:42:57
Перевод: Профессиональный (двухголосый)
Режиссер: Жан-Кристоф де Ревьер / Jean-Christophe de Revière
В ролях: ведущий - журналист и писатель Стефан Берн / Stéphane Bern
Качество: SATRip
Формат: AVI
Видео кодек: XviD
Аудио кодек: AC3
Видео: 720x400 25fps 1800 kbps
Аудио: AC3, 2 ch, 192kbps
Описание: Не позволяйте загадке помешать Вам уснуть, может быть, она никогда не будет разгадана, а вопросы останутся без ответов. Мы беремся за величайшие неразгаданные тайны мира, пытаясь узнать, что стоит за легендами, которые веками вдохновляли, интриговали и ставили в тупик человечество!
Телевизионный цикл "Секреты истории" выходит с 2007 года на канале France 2. Каждый выпуск посвящен раскрытию малоизвестного или таинственного эпизода истории. Неизменным ведущим цикла является журналист и писатель Стефан Берн / Stéphane Bern, признанный специалист по истории элиты и жизни королевских особ, кавалер Ордена искусств и литературы и рыцарь Ордена Гримальди.
Изначально цикл выходил еженедельно по воскресеньям продолжительностью около часа. В 2008/2009 годах цикл был свернут и заменен на телешоу "Объект скандала", который вел Гийом Дюран / Guillaume Durand. С августа 2009 года выпуски "Секретов истории" возвращаются на телеэкран продолжительностью час-полтора.
Список серий:

01. Николай II – последний царь России / Nicolas II, le dernier tsar de Russie

В сегодняшней передаче пойдет рассказ о последнем российском царе Николае II.
02. Francois Ferdinand ou la fin du monde

03. Дантон. К оружию, граждане! / Danton: aux armes citoyens

В сегодняшнем выпуске мы узнаем удивительную историю: героическую и в тоже время трагическую, одного из самых выдающихся деятелей французской революции Жоржа Дантона.
04. Vacances royales

05. Маркиза де Помпадур, или Любовь монарха / Les courtisanes: La Pompadour ou le roi amoureux

Если измерять силу любви по дворцам, принесенным в дар предмету страсти, то можно смело утверждать, что Людовик до безумия любил маркизу де Помпадур.

06. Аньес Сорель – первая из фавориток / Les courtisanes: Agnes Sorel, premiere des favorites

Сегодня в передаче рассказ о запретном романе Карла VII и его любовницы, Аньес Сорель, в разгар Столетней войны.

07. Слава и боль Марии Каллас / Gloire et douleurs de Maria Callas

История певицы с самым красивым в мире голосом.
08. Les courtisanes: L'irresistible ascension de madame de Maintenon
09. Les reines de Paris

10. Де Голль, последний гигант / De Gaulle, le dernier des geants

Де Голль – это знаковая фигура в истории Франции, политический деятель, которого единодушно поддерживали французы.
11. La Grande-Duchesse Charlotte de Luxembourg

12. Людовик Святой - Яко на Небеси и на Земли / Saint Louis, sur la terre comme au ciel

Сегодня рассказ об удивительной судьбе одного из знаменитейших королей Франции – Людовика IX. Он родился 800 лет назад. Его царствование продлилось 44 года.

13. Анна Бретонская. Дважды королева / Anne de Bretagne, deux fois Reine

Она подарила Франции ее самое красивое украшение: Бретань. Молодая герцогиня Анна была самой желанной партией Европы между Средневековьем и эпохой Возрождения. Император Священной империи и король Франции добивались ее руки. Помимо собственной воли она отдалась исконному врагу герцогства – Франции.

14. Мазарини. Опасные связи / Mazarin, les liaisons dangereuses

Сегодня разговор пойдет о человеке с невероятной и скандальной судьбой. Речь идет о кардинале Мазарини.

15. Королева Гортензия. Символ империи / La reine Hortense pour le meilleur et pour l'empire

Гортензия, дочь императрицы Жозефины, мать императора Наполеона III, падчерица и невестка императора Наполеона I, жила в один из самых значимых периодов французской истории, во время невероятной наполеоновской эпопеи.

16. Юлий Цезарь, или Слава Рима / Jules Cesar ou la gloire de Rome

Сегодня мы поговорим о государственном деятеле с исключительной судьбой. Он не был императором, но сыграл крайне важную роль в истории Рима. Это Юлий Цезарь.

Скриншоты


MediaInfo:

Format : AVI
Format/Info : Audio Video Interleave
File size : 1.44 GiB
Duration : 1h 42mn
Overall bit rate : 1 999 Kbps
Writing application : TMPGEnc Video Mastering Works 5 Version. 5.0.6.38
Writing library : TMPGEnc Video Mastering Works 5 Version. 5.0.6.38
Video
ID : 0
Format : MPEG-4 Visual
Format profile : Advanced Simple@L5
Format settings, BVOP : 2
Format settings, QPel : No
Format settings, GMC : No warppoints
Format settings, Matrix : Default (H.263)
Muxing mode : Packed bitstream
Codec ID : XVID
Codec ID/Hint : XviD
Duration : 1h 42mn
Bit rate : 1 799 Kbps
Width : 720 pixels
Height : 400 pixels
Display aspect ratio : 16:9
Frame rate : 25.000 fps
Color space : YUV
Chroma subsampling : 4:2:0
Bit depth : 8 bits
Scan type : Progressive
Compression mode : Lossy
Bits/(Pixel*Frame) : 0.250
Stream size : 1.29 GiB (90%)
Writing library : XviD 73
Audio
ID : 1
Format : AC-3
Format/Info : Audio Coding 3
Mode extension : CM (complete main)
Format settings, Endianness : Big
Codec ID : 2000
Duration : 1h 42mn
Bit rate mode : Constant
Bit rate : 192 Kbps
Channel(s) : 2 channels
Channel positions : Front: L R
Sampling rate : 48.0 KHz
Bit depth : 16 bits
Compression mode : Lossy
Stream size : 141 MiB (10%)
Alignment : Aligned on interleaves
Interleave, duration : 240 ms (6.00 video frames)
Interleave, preload duration : 224 ms

Внимание:

Раздача ведётся путём добавления новых серий; при каждом добавлении создаётся новый торрент. Чтобы начать докачку новой серии, пользователям необходимо сделать следующее:
- Остановить скачивание.
- Удалить старый торрент у себя из клиента (старые серии удалять не надо).
- Скачать новый торрент и запустить его у себя в клиенте вместо старого, при этом указать клиенту путь в старую папку куда и должно происходить скачивание новых серий.
Добавлено
03. Дантон. К оружию, граждане! / Danton: aux armes citoyens
Тайны истории / Secrets d'Histoire [сезон 4 ]
Тайны истории / Secrets d'Histoire [сезон 6 ]
Тайны истории / Secrets d'Histoire [сезон 7 ]
Тайны истории / Secrets d'Histoire [сезон 8 ]
[Профиль] [ЛС]
Кто просматривает тему:

Показать сообщения:    

Текущее время: Сегодня 10:15

Часовой пояс: GMT



Вы не можете начинать темы
Вы не можете отвечать на сообщения
Вы не можете редактировать свои сообщения
Вы не можете удалять свои сообщения
Вы не можете голосовать в опросах
Вы не можете прикреплять файлы к сообщениям
Вы не можете скачивать файлы