365: Тайны истории / Secrets d'Histoire [сезон 7 выпуск 1,4,8,9 из 14] (Жан-Кристоф де Ревьер / Jean-Christophe de Revière) [2013 г., Документальный, история, научно-популярный, SATRip]

 
Автор Сообщение

skorpionN ®

Пол:

Стаж: 1 год 8 месяцев

Сообщений: 591



Награды: 4 (Подробнее)

Mega Seeder 1 (Количество: 1) Mega Seeder 2 (Количество: 1) Mega Seeder 3 (Количество: 1)
Торрент-статистика

Создавать темы 05-Дек-2015 09:58

[Цитировать]

365: Тайны истории / Secrets d'Histoire [сезон 7 выпуск 1,4,8,9 из 14]
Год выпуска: 2013
Страна: Франция, Societe Europeenne de Production France Televisions
Жанр: Документальный, история, научно-популярный
Продолжительность: 4x~01:51:10
Перевод: Профессиональный (двухголосый), компания ИГМАР
Режиссер: Жан-Кристоф де Ревьер / Jean-Christophe de Revière
В ролях: ведущий - журналист и писатель Стефан Берн / Stéphane Bern
Качество: SATRip
Формат: AVI
Видео кодек: XviD
Аудио кодек: AC3
Видео: 720x400 25fps 1800 kbps
Аудио: AC3, 2 ch, 192kbps
Описание: Не позволяйте загадке помешать Вам уснуть, может быть, она никогда не будет разгадана, а вопросы останутся без ответов. Мы беремся за величайшие неразгаданные тайны мира, пытаясь узнать, что стоит за легендами, которые веками вдохновляли, интриговали и ставили в тупик человечество!
Телевизионный цикл "Секреты истории" выходит с 2007 года на канале France 2. Каждый выпуск посвящен раскрытию малоизвестного или таинственного эпизода истории. Неизменным ведущим цикла является журналист и писатель Стефан Берн / Stéphane Bern, признанный специалист по истории элиты и жизни королевских особ, кавалер Ордена искусств и литературы и рыцарь Ордена Гримальди.
Изначально цикл выходил еженедельно по воскресеньям продолжительностью около часа. В 2008/2009 годах цикл был свернут и заменен на телешоу "Объект скандала", который вел Гийом Дюран / Guillaume Durand. С августа 2009 года выпуски "Секретов истории" возвращаются на телеэкран продолжительностью час-полтора.
Список серий:

01. Мольер. Маски долой / Moliere tombe le masque

Каждый год 15 января в стенах театра "Комеди-Франсез" празднуют день рождения великого драматурга, главного героя нашего сегодняшнего выпуска. Мы расскажем о жизни, полной страстей, планов и страданий самого знаменитого комедиографа Франции.
02. Juan Carlos, le roi des Espagnols
03. Si les murs du Vatican pouvaient parler

04. Тайна Пикассо / Le mystere Picasso

В этой серии мы узнаем о жизни великого П. Пикассо, настоящего гения, испанца по рождению но француза по сути. Личная жизнь Пикассо продолжает шокировать и сегодня достойных людей. Он был человеком крайностей, приумножал свои любовные победы и одновременно создал более 50 000 произведений стоимость которых сегодня оценивается миллионами евро.
05. Un homme nomme Jesus
06. 14 juillet 1789 : le matin du grand soir
07. Sarah Bernhardt, sa vie, ses folies...

08. Кардинал Ришелье. Небеса могут подождать / Le cardinal de Richelieu : le ciel peut attendre...

В сегодняшнем выпуске мы узнаем о жизни кардинала Ришелье. Она была полна страсти, амбиций, интриг, денег, красивых женщин и лиш иногда набожности...

09. Моцарт: свобода или смерть! / Mozart: la liberte ou la mort!

Сегодня рассказ о невероятной судьбе самого знаменитого в мире музыканта Вольфганга Амадея Моцарта. Все мы знаем об этом вундеркинде, который начал сочинять музыку, еще не умея писать, и который благодаря виртуозной игре на клавесине прославился при европейских дворах. Но карьера этого гения была более хаотичной, нежели можно было ожидать при таком таланте.
10. La reine Amelie, une Francaise au Portugal

11. Gatsby et les magnifiques

Перед вами предстанут портреты американских миллиардеров: короля пушнины и недвижимости Джона Джекоба Астора IV, погибшего на "Титанике"; банкира и финансиста Джона Пирпонта Моргана; железнодорожного магната Уильяма Генри Вандербильта и сталепромышленника Эндрю Карнеги.
12. Frederic II
13. Georges Clemenceau : un Tigre au grand coeur
14. Gayatri Devi : une princesse au pays des maharadjahs

Скриншоты


MediaInfo:

Format : AVI
Format/Info : Audio Video Interleave
File size : 1.55 GiB
Duration : 1h 51mn
Overall bit rate : 1 999 Kbps
Writing application : TMPGEnc Video Mastering Works 5 Version. 5.0.6.38
Writing library : TMPGEnc Video Mastering Works 5 Version. 5.0.6.38
Video
ID : 0
Format : MPEG-4 Visual
Format profile : Advanced Simple@L5
Format settings, BVOP : 2
Format settings, QPel : No
Format settings, GMC : No warppoints
Format settings, Matrix : Default (H.263)
Muxing mode : Packed bitstream
Codec ID : XVID
Codec ID/Hint : XviD
Duration : 1h 51mn
Bit rate : 1 799 Kbps
Width : 720 pixels
Height : 400 pixels
Display aspect ratio : 16:9
Frame rate : 25.000 fps
Color space : YUV
Chroma subsampling : 4:2:0
Bit depth : 8 bits
Scan type : Progressive
Compression mode : Lossy
Bits/(Pixel*Frame) : 0.250
Stream size : 1.40 GiB (90%)
Writing library : XviD 73
Audio
ID : 1
Format : AC-3
Format/Info : Audio Coding 3
Mode extension : CM (complete main)
Format settings, Endianness : Big
Codec ID : 2000
Duration : 1h 51mn
Bit rate mode : Constant
Bit rate : 192 Kbps
Channel(s) : 2 channels
Channel positions : Front: L R
Sampling rate : 48.0 KHz
Bit depth : 16 bits
Compression mode : Lossy
Stream size : 153 MiB (10%)
Alignment : Aligned on interleaves
Interleave, duration : 240 ms (6.00 video frames)
Interleave, preload duration : 224 ms

Внимание:

Раздача ведётся путём добавления новых серий; при каждом добавлении создаётся новый торрент. Чтобы начать докачку новой серии, пользователям необходимо сделать следующее:
- Остановить скачивание.
- Удалить старый торрент у себя из клиента (старые серии удалять не надо).
- Скачать новый торрент и запустить его у себя в клиенте вместо старого, при этом указать клиенту путь в старую папку куда и должно происходить скачивание новых серий.
Добавлено
04. Тайна Пикассо / Le mystere Picasso
Тайны истории / Secrets d'Histoire [сезон 4 ]
Тайны истории / Secrets d'Histoire [сезон 6 ]
Тайны истории / Secrets d'Histoire [сезон 7 ]
Тайны истории / Secrets d'Histoire [сезон 8 ]
[Профиль] [ЛС]

Таисия

Стаж: 1 год 8 месяцев

Сообщений: 37



Награды: 1 (Подробнее)

Girls (Количество: 1)
Торрент-статистика

Создавать темы 22-Фев-2016 00:24 (спустя 2 месяца 16 дней)

[Цитировать]

СПАСИБО, скачиваю серию, чтобы не ждать Стефана ...
[Профиль] [ЛС]
Кто просматривает тему:

Показать сообщения:    

Текущее время: Сегодня 14:26

Часовой пояс: GMT



Вы не можете начинать темы
Вы не можете отвечать на сообщения
Вы не можете редактировать свои сообщения
Вы не можете удалять свои сообщения
Вы не можете голосовать в опросах
Вы не можете прикреплять файлы к сообщениям
Вы не можете скачивать файлы