365: Тайны истории / Secrets d'Histoire [сезон 6 выпуски 2-4,7,12 из 12] (Жан-Кристоф де Ревьер / Jean-Christophe de Revière) [2012 г., Документальный, история, научно-популярный, SATRip]

 
Автор Сообщение

skorpionN ®

Пол:

Стаж: 1 год 8 месяцев

Сообщений: 591



Награды: 4 (Подробнее)

Mega Seeder 1 (Количество: 1) Mega Seeder 2 (Количество: 1) Top Releaser 2 (Количество: 1)
Торрент-статистика

Создавать темы 13-Ноя-2015 19:46

[Цитировать]

365: Тайны истории / Secrets d'Histoire [сезон 6 выпуски 2-4,7,12 из 12]
Год выпуска: 2012
Страна: Франция, Societe Europeenne de Production France Televisions
Жанр: Документальный, история, научно-популярный
Продолжительность: 4x~ 01:34:30
Перевод: Профессиональный (двухголосый), компания ИГМАР
Режиссер: Жан-Кристоф де Ревьер / Jean-Christophe de Revière
В ролях: ведущий - журналист и писатель Стефан Берн / Stéphane Bern
Качество: SATRip
Формат: AVI
Видео кодек: XviD
Аудио кодек: AC3
Видео: 720x400 25fps 1800 kbps
Аудио: AC3, 2 ch, 192kbps
Описание: Не позволяйте загадке помешать Вам уснуть, может быть, она никогда не будет разгадана, а вопросы останутся без ответов. Мы беремся за величайшие неразгаданные тайны мира, пытаясь узнать, что стоит за легендами, которые веками вдохновляли, интриговали и ставили в тупик человечество!
Телевизионный цикл "Секреты истории" выходит с 2007 года на канале France 2. Каждый выпуск посвящен раскрытию малоизвестного или таинственного эпизода истории. Неизменным ведущим цикла является журналист и писатель Стефан Берн / Stéphane Bern, признанный специалист по истории элиты и жизни королевских особ, кавалер Ордена искусств и литературы и рыцарь Ордена Гримальди.
Изначально цикл выходил еженедельно по воскресеньям продолжительностью около часа. В 2008/2009 годах цикл был свернут и заменен на телешоу "Объект скандала", который вел Гийом Дюран / Guillaume Durand. С августа 2009 года выпуски "Секретов истории" возвращаются на телеэкран продолжительностью час-полтора.
Список серий:
01. Elisabeth II, dans l'intimite du regne

02. Людовик ХIV. Увлечения Короля-Солнце / Louis XIV. Les passions du Roi-Soleil

Людовик ХIV- один из самых ярких королей Франции. Никогда ни один из правителей не превозносил свою жизнь вплоть до самых незначительных бытовых подробностей. Французы обязаны ему созданием государства и возведению Версаля, в облике которого заключено всё величие Франции.

03. Виктор Гюго. Тайный лик великого человека / Victor Hugo la face cachee du grand homme

Он совершил революцию в классическом театре и перевернул мир поэзии. Виктор Гюго - безусловно личность мирового масштаба. Этот литературный гений успел познать славу при жизни, а после смерти ему воздали невероятные почести. Но за всем этим скрывались личные драмы и переживания.

04. Изабелла-католичка / Isabelle la Catholique, reine d'Espagne

Сегодня мы узнаем о судьбе самой великой испанской владычицы - о королеве Изабелле І Кастильской. Необыкновенная женщина, женщина - облеченная властью, следуя за ней мы побываем в местах где арабо-испанское искусство пережило свой расцвет. Мы постараемся понять эту молодую кастильянку, решительную, расчетливую, которая совершит невозможное.
05. Louis XV et Marie Leczinska, tromperie a Versailles
06. Christine de Suede, reine de scandales

07. Талейран – хромой Дьявол / Talleyrand, le diable boiteux

Рассказ об этом человеке мы начнем из великолепного замка Валансе, находящегося между Берри и Туренью, где Талейран обдумывал свои интриги вдали от шумного общества. Он родился во времена царствования Людовика XV, стал епископом Отенским при Людовике XVI, был советником Наполеона Бонапарта, а потом помог Бурбонам вернуться на трон.

08. Сулейман Великолепный / Soliman le magnifique

Сегодняшний рассказ о легендарной личности – Сулеймане Великолепном. Мы побываем во дворце Топкапи с его гаремами и турецкими банями, полюбуемся великолепной мозаикой мечетей.
09. Marie-Caroline, l’indomptable Reine de Naples et de Sicile
10. Le Duc d’Aumale, le magicien de Chantilly
11. Monaco et les princes de Grimaldi.

12. Лафайет. Однажды в Америке / La Fayette: il etait une fois l’Amerique

Прежде чем поддержать Обаму, Рейгана или Кеннеди, американцы восславили француза по фамилии Лафайет, память о котором по-прежнему жива в их сердцах. Американский конгресс присвоил Лафайету, одному из семи иностранцев, титул почетного гражданина США.

Скриншоты


MediaInfo:

Format : AVI
Format/Info : Audio Video Interleave
File size : 1.32 GiB
Duration : 1h 34mn
Overall bit rate : 1 999 Kbps
Writing application : TMPGEnc Video Mastering Works 5 Version. 5.0.6.38
Writing library : TMPGEnc Video Mastering Works 5 Version. 5.0.6.38
Video
ID : 0
Format : MPEG-4 Visual
Format profile : Advanced Simple@L5
Format settings, BVOP : 2
Format settings, QPel : No
Format settings, GMC : No warppoints
Format settings, Matrix : Default (H.263)
Muxing mode : Packed bitstream
Codec ID : XVID
Codec ID/Hint : XviD
Duration : 1h 34mn
Bit rate : 1 799 Kbps
Width : 720 pixels
Height : 400 pixels
Display aspect ratio : 16:9
Frame rate : 25.000 fps
Color space : YUV
Chroma subsampling : 4:2:0
Bit depth : 8 bits
Scan type : Progressive
Compression mode : Lossy
Bits/(Pixel*Frame) : 0.250
Stream size : 1.19 GiB (90%)
Writing library : XviD 73
Audio
ID : 1
Format : AC-3
Format/Info : Audio Coding 3
Mode extension : CM (complete main)
Format settings, Endianness : Big
Codec ID : 2000
Duration : 1h 34mn
Bit rate mode : Constant
Bit rate : 192 Kbps
Channel(s) : 2 channels
Channel positions : Front: L R
Sampling rate : 48.0 KHz
Bit depth : 16 bits
Compression mode : Lossy
Stream size : 130 MiB (10%)
Alignment : Aligned on interleaves
Interleave, duration : 240 ms (6.00 video frames)
Interleave, preload duration : 224 ms

Внимание:

Раздача ведётся путём добавления новых серий; при каждом добавлении создаётся новый торрент. Чтобы начать докачку новой серии, пользователям необходимо сделать следующее:
- Остановить скачивание.
- Удалить старый торрент у себя из клиента (старые серии удалять не надо).
- Скачать новый торрент и запустить его у себя в клиенте вместо старого, при этом указать клиенту путь в старую папку куда и должно происходить скачивание новых серий.
Добавлено
02. Людовик ХIV. Увлечения Короля-Солнце / Louis XIV. Les passions du Roi-Soleil
Тайны истории / Secrets d'Histoire [сезон 4 ]
Тайны истории / Secrets d'Histoire [сезон 6 ]
Тайны истории / Secrets d'Histoire [сезон 7 ]
Тайны истории / Secrets d'Histoire [сезон 8 ]
[Профиль] [ЛС]
Кто просматривает тему:

Показать сообщения:    

Текущее время: Сегодня 17:42

Часовой пояс: GMT



Вы не можете начинать темы
Вы не можете отвечать на сообщения
Вы не можете редактировать свои сообщения
Вы не можете удалять свои сообщения
Вы не можете голосовать в опросах
Вы не можете прикреплять файлы к сообщениям
Вы не можете скачивать файлы