365: Тайны истории / Secrets d'Histoire [сезон 4 выпуски 2,4 из 7] (Жан-Кристоф де Ревьер / Jean-Christophe de Revière) [2011 г., Документальный, история, научно-популярный, SATRip]

 
Автор Сообщение

skorpionN ®

Пол:

Стаж: 1 год 8 месяцев

Сообщений: 592



Награды: 4 (Подробнее)

Mega Seeder 1 (Количество: 1) Mega Seeder 2 (Количество: 1) Top Releaser 2 (Количество: 1)
Торрент-статистика

Создавать темы 08-Ноя-2015 11:50

[Цитировать]

365: Тайны истории / Secrets d'Histoire [сезон 4 выпуски 2,4 из 7]
Год выпуска: 2011
Страна: Франция, Societe Europeenne de Production France Televisions
Жанр: Документальный, история, научно-популярный
Продолжительность: 01:38:07
Перевод: Профессиональный (двухголосый), компания ИГМАР
Режиссер: Жан-Кристоф де Ревьер / Jean-Christophe de Revière
В ролях: ведущий - журналист и писатель Стефан Берн / Stéphane Bern
Качество: SATRip
Формат: AVI
Видео кодек: XviD
Аудио кодек: AC3
Видео: 720x400 25fps 1800kbps
Аудио: AC3, 2 ch, 192kbps
Описание: Не позволяйте загадке помешать Вам уснуть, может быть, она никогда не будет разгадана, а вопросы останутся без ответов. Мы беремся за величайшие неразгаданные тайны мира, пытаясь узнать, что стоит за легендами, которые веками вдохновляли, интриговали и ставили в тупик человечество!
Телевизионный цикл "Секреты истории" выходит с 2007 года на канале France 2. Каждый выпуск посвящен раскрытию малоизвестного или таинственного эпизода истории. Неизменным ведущим цикла является журналист и писатель Стефан Берн / Stéphane Bern, признанный специалист по истории элиты и жизни королевских особ, кавалер Ордена искусств и литературы и рыцарь Ордена Гримальди.
Изначально цикл выходил еженедельно по воскресеньям продолжительностью около часа. В 2008/2009 годах цикл был свернут и заменен на телешоу "Объект скандала", который вел Гийом Дюран / Guillaume Durand. С августа 2009 года выпуски "Секретов истории" возвращаются на телеэкран продолжительностью час-полтора.
Список серий:
01. Toutânkhamon : un trésor de Pharaon

02. Франциск I. Король королей / François Ier : le Roi des rois

Почему Франциск I считается одиним из любимейших суверенов Франции? Наверное потому, что он такой же как и мы: гордый и щедрый, весёлый и бесшабашный, мятежный, отважный воин, который одержал множество побед. Франциск I был французом "до мозга костей", любившим и просто обожавшим женщин. Сего харизмой, внешностью, ростом, статью был великим соблазнителем, который любил повторять - мужчина без женщины, как сад без цветов.
03. La Reine Victoria ou l’empire des sens

04. Николя Фуке. Затмивший Солнце / Nicolas Fouquet : le Soleil offusqué

Это история самого влиятельного министра королевства. У него сотни друзей, у его ног женщины и всё его могущество отражается в его замке. Этот человек, Николя Фуке, испытывает самый головокружительный взлёт 17 века. Но в один прекрасный день, арестованный по приказу короля Людовика IVX испытывает и самое головокружительное падение. Накануне ареста он был "ВСЕМ", а на следующий день стал "НИЧЕМ", узником-забытым в одиночной камере королевства.
05. Claude Monet : jardins secrets à Giverny
06. Sissi impératrice : amour, gloire et tragédie
07. Si les murs de l'Elysée pouvaient parler

Скриншоты


MediaInfo:

Format : AVI
Format/Info : Audio Video Interleave
File size : 1.37 GiB
Duration : 1h 38mn
Overall bit rate : 1 999 Kbps
Writing application : TMPGEnc Video Mastering Works 5 Version. 5.0.6.38
Writing library : TMPGEnc Video Mastering Works 5 Version. 5.0.6.38
Video
ID : 0
Format : MPEG-4 Visual
Format profile : Advanced Simple@L5
Format settings, BVOP : 2
Format settings, QPel : No
Format settings, GMC : No warppoints
Format settings, Matrix : Default (H.263)
Muxing mode : Packed bitstream
Codec ID : XVID
Codec ID/Hint : XviD
Duration : 1h 38mn
Bit rate : 1 799 Kbps
Width : 720 pixels
Height : 400 pixels
Display aspect ratio : 16:9
Frame rate : 25.000 fps
Color space : YUV
Chroma subsampling : 4:2:0
Bit depth : 8 bits
Scan type : Progressive
Compression mode : Lossy
Bits/(Pixel*Frame) : 0.250
Stream size : 1.23 GiB (90%)
Writing library : XviD 73
Audio
ID : 1
Format : AC-3
Format/Info : Audio Coding 3
Mode extension : CM (complete main)
Format settings, Endianness : Big
Codec ID : 2000
Duration : 1h 38mn
Bit rate mode : Constant
Bit rate : 192 Kbps
Channel(s) : 2 channels
Channel positions : Front: L R
Sampling rate : 48.0 KHz
Bit depth : 16 bits
Compression mode : Lossy
Stream size : 135 MiB (10%)
Alignment : Aligned on interleaves
Interleave, duration : 240 ms (6.00 video frames)
Interleave, preload duration : 224 ms

Внимание:

Раздача ведётся путём добавления новых серий; при каждом добавлении создаётся новый торрент. Чтобы начать докачку новой серии, пользователям необходимо сделать следующее:
- Остановить скачивание.
- Удалить старый торрент у себя из клиента (старые серии удалять не надо).
- Скачать новый торрент и запустить его у себя в клиенте вместо старого, при этом указать клиенту путь в старую папку куда и должно происходить скачивание новых серий.
Добавлено
02. Франциск I. Король королей / François Ier : le Roi des rois
Тайны истории / Secrets d'Histoire [сезон 4 ]
Тайны истории / Secrets d'Histoire [сезон 6 ]
Тайны истории / Secrets d'Histoire [сезон 7 ]
Тайны истории / Secrets d'Histoire [сезон 8 ]


Последний раз редактировалось: skorpionN (2016-01-09 09:34), всего редактировалось 3 раз(а)
[Профиль] [ЛС]

KiruhaDelMar

Стаж: 1 год 8 месяцев

Сообщений: 247



Награды: Нет

Торрент-статистика

Создавать темы 18-Дек-2015 21:51 (спустя 1 месяц 10 дней)

[Цитировать]

Короче смотреть сегодня нехрен bw
[Профиль] [ЛС]
Кто просматривает тему:

Показать сообщения:    

Текущее время: Сегодня 10:59

Часовой пояс: GMT



Вы не можете начинать темы
Вы не можете отвечать на сообщения
Вы не можете редактировать свои сообщения
Вы не можете удалять свои сообщения
Вы не можете голосовать в опросах
Вы не можете прикреплять файлы к сообщениям
Вы не можете скачивать файлы