365: Секрет Фестского кода / The Secret of the Phaistos Code (Майкл Грегор / Michael Gregor) [2015 г., Документальный, история, археология, DVB]

 
Автор Сообщение

skorpionN ®

Пол:

Стаж: 3 года 2 месяца

Сообщений: 941



Награды: 4 (Подробнее)

Mega Seeder 1 (Количество: 1) Mega Seeder 3 (Количество: 1) Top Releaser 2 (Количество: 1)
Торрент-статистика

Создавать темы 18-Июл-2017 12:24

[Цитировать]

365: Секрет Фестского кода / The Secret of the Phaistos Code
Год выпуска: 2015
Страна: Франция, Германия, Arte and ZDF Enterprises
Жанр: Документальный, история, археология
Продолжительность: 00:51:42
Перевод: Профессиональный (одноголосый), переведено и озвучено на студии "SDI Media" по заказу ТПО "Red Media"
Режиссер: Майкл Грегор / Michael Gregor
Описание: С мировой археологией связано много загадок и тайн. И не всегда эти загадки лежат на поверхности и столь огромны, как египетские пирамиды. Порой они легко умещаются в руках человека. По археологическим данным, Фестский диск следовало датировать примерно 1600 годом до н. э. - периодом становления крито-минойской цивилизации. Долгое время оставался открытым вопрос о месте изготовления керамического диска - был ли он сделан на самом острове Крит или же кем-то завезен сюда? Однако, не отвергалась и версия подделки...
Качество: DVB
Формат: MPEG
Видео кодек: MPEG2
Аудио кодек: MPEG Audio
Видео: 720х576 (4:3) анаморфной (768x576) 25fps ~2682 Kbps
Аудио: MPEG Audio 2 2ch, 48kHz, 192 kbps

Скриншоты


MediaInfo:

Формат файла: .ts (MPEG-TS)
Размер файла: 1,09 GB (1 173 074 281 bytes)
Длительность: 51mn 42s
Навигация по главам: Нет
Битрейт (все потоки): 3 025 Kbps
Тип битрейта (все потоки): Variable
Обложка: Отсутствует
:
Название: The Secret of the Phaistos Code
:
Тип потока: Видео
Длительность: 00:51:42
Кодек: MPEG Video
Кодек/профиль: Main@Main
Кодек/ID: 2
Кодек/версия: Version 2
Размеры изображения: 720 x 576 (4:3)
Частота кадров: 25.000 fps
Размер потока: 992 MiB (89%)
Битрейт: 2 682 Kbps
Битрейт/макс: 9 800 Kbps
Битрейт/тип: VBR
Метод сжатия: Lossy
Стандарт: PAL
Цветовое пространство: YUV
Тип развёртки: Interlaced
Колориметрия: 4:2:0
Глубина: 8 bits
:
Тип потока: Звук #1
Язык: Russian
Длительность: 00:51:42.144
Кодек: MPEG Audio
Кодек/профиль: Layer 2
Кодек/ID: 3
Частота дискретизации: 48.0 KHz
Каналов: 2 channels
Битрейт: 192 Kbps
Битрейт/тип: Constant
Размер потока: 71.0 MiB (6%)
Метод сжатия: Lossy
[Профиль] [ЛС]
Кто просматривает тему:

Показать сообщения:    

Текущее время: Сегодня 17:12

Часовой пояс: GMT



Вы не можете начинать темы
Вы не можете отвечать на сообщения
Вы не можете редактировать свои сообщения
Вы не можете удалять свои сообщения
Вы не можете голосовать в опросах
Вы не можете прикреплять файлы к сообщениям
Вы не можете скачивать файлы