365: Лучшая десятка шедевров архитектуры / Top 10 the Art of Architecture [4 из 10] (Макс Серио / Max Serio, Войтех Филчев / Vojtech Filcev) [2015 г., Документальный, архитектура, строительство, SATRip]

 
Автор Сообщение

skorpionN ®

Пол:

Стаж: 2 года 6 месяцев

Сообщений: 805



Награды: 4 (Подробнее)

Mega Seeder 1 (Количество: 1) Top Releaser 2 (Количество: 1) Mega Seeder 2 (Количество: 1)
Торрент-статистика

Создавать темы 06-Июн-2017 17:15

[Цитировать]

365: Лучшая десятка шедевров архитектуры / Top 10 the Art of Architecture [3 из 10]
Год выпуска: 2015
Страна: Чехия, США, KM plus Media & Big Media
Жанр: Документальный, архитектура, строительство
Продолжительность: 4x~00:52:00
Перевод: Профессиональный (одноголосый), переведено компанией SDI Media по заказу ТПО Red Media
Режиссер: Макс Серио / Max Serio, Войтех Филчев / Vojtech Filcev
Описание: Человечество наделено великими дарами. Возможно, самый великий из них – это наше воображение, потому что именно воображение даёт нам возможность преображать окружающий мир. Самые очевидные примеры этого – прекрасные здания, архитектура вокруг нас. Но какие произведения архитектуры мы должны увидеть хотя бы однажды? Узнать это нам поможет программа "Десятка лучших произведений архитектуры" – документальный цикл, каждая серия которого посвящена десяти самым красивым, известным архитектурным сооружениям разных стран.
Список серий:Инженерное искусство / Art of Engeneerng01. Мосты / Bridges
02. Музеи и галереи / The Most Famous Museums and Galleries
03. Стадионы / Stadiums
04. Телебашни и передатчики / TV Towers and Transmitters
05. Транспортные мегаструктуры / Transport Megastructures
Архитектурное искусство / Art of Architecture
06. Монументы и мемориалы/ Memorials and Monuments
07. Драматические и оперные театры / Theatres & Opera Houses
08. Городские площади / City Squares
09. Парки и сады / Parks and Gardens
10. Забавный дизайн / Playful Designs
Качество: SATRip
Формат: MPEG - TS
Видео кодек: H.264
Аудио кодек: AC3
Видео: 720х576 (4:3) анаморфной (785x576) 25fps ~2220 Kbps
Аудио: AC3 2ch, 48kHz, 192 kbps

Скриншоты


MediaInfo:

Format : MPEG-TS
File size : 938 MiB
Duration : 51 min 40 s
Overall bit rate mode : Variable
Overall bit rate : 2 539 kb/s
Maximum Overall bit rate : 35.5 Mb/s
Video
ID : 4113 (0x1011)
Menu ID : 1 (0x1)
Format : AVC
Format/Info : Advanced Video Codec
Format profile : High@L4.1
Format settings, CABAC : Yes
Format settings, ReFrames : 4 frames
Codec ID : 27
Duration : 51 min 40 s
Bit rate mode : Variable
Bit rate : 2 219 kb/s
Maximum bit rate : 40.0 Mb/s
Width : 720 pixels
Height : 576 pixels
Display aspect ratio : 4:3
Frame rate : 25.000 FPS
Standard : PAL
Color space : YUV
Chroma subsampling : 4:2:0
Bit depth : 8 bits
Scan type : Progressive
Bits/(Pixel*Frame) : 0.214
Stream size : 820 MiB (87%)
Language : English
Audio
ID : 4352 (0x1100)
Menu ID : 1 (0x1)
Format : AC-3
Format/Info : Audio Coding 3
Mode extension : CM (complete main)
Format settings, Endianness : Big
Codec ID : 129
Duration : 51 min 40 s
Bit rate mode : Constant
Bit rate : 192 kb/s
Channel(s) : 2 channels
Channel positions : Front: L R
Sampling rate : 48.0 kHz
Frame rate : 31.250 FPS (1536 spf)
Compression mode : Lossy
Stream size : 71.0 MiB (8%)
Language : Russian

Внимание:

Раздача ведётся путём добавления новых серий; при каждом добавлении создаётся новый торрент. Чтобы начать докачку новой серии, пользователям необходимо сделать следующее:
- Остановить скачивание.
- Удалить старый торрент у себя из клиента (старые серии удалять не надо).
- Скачать новый торрент и запустить его у себя в клиенте вместо старого, при этом указать клиенту путь в старую папку куда и должно происходить скачивание новых серий.
Добавлено
10. Забавный дизайн / Playful Designs
[Профиль] [ЛС]
Кто просматривает тему:

Показать сообщения:    

Текущее время: Сегодня 00:55

Часовой пояс: GMT



Вы не можете начинать темы
Вы не можете отвечать на сообщения
Вы не можете редактировать свои сообщения
Вы не можете удалять свои сообщения
Вы не можете голосовать в опросах
Вы не можете прикреплять файлы к сообщениям
Вы не можете скачивать файлы