365: Коллекция памятников ЮНЕСКО на территории Чешской республики / Národní klenoty: soubor Památek UNESCO na území České republiky [13 из 13] (Отто Каллус / Otto Kallus, Иржи Новак /Jiří Novák) [2012 г., Документальный, история, архитектура, SATRip]

 
Автор Сообщение

skorpionN ®

Пол:

Стаж: 1 год 8 месяцев

Сообщений: 591



Награды: 4 (Подробнее)

Mega Seeder 1 (Количество: 1) Top Releaser 2 (Количество: 1) Mega Seeder 2 (Количество: 1)
Торрент-статистика

Создавать темы 14-Янв-2016 09:43

[Цитировать]

365: Коллекция памятников ЮНЕСКО на территории Чешской республики / Národní klenoty: soubor Památek UNESCO na území České republiky [13 из 13]
Год выпуска: 2012
Страна: Чехия, Frmol Production
Жанр: Документальный, история, архитектура
Продолжительность: 12x~00:26:00
Перевод: Профессиональный (одноголосый), компания SDI Media, текст читет Илья Хвостиков
Режиссер: Отто Каллус / Otto Kallus, Иржи Новак / Jiří Novák
Описание: В ноябре в Чехии отмечается один из главных государственных праздников – День борьбы за свободу и демократию. Чехия – одна из самых красивых стран Европы, притягивающая множество туристов, потому как архитектурное и художественное наследие этой страны очень разнообразно. Фильм чешских документалистов расскажет об уникальных национальных архитектурных сокровищах Чехии, включенных в список Всемирного наследия ЮНЕСКО.
Список серий:
01. Чешский Крумлов. От реки до небес / Český Krumlov - od řeky k nebesům
02. Тельч. Озёрная роза / Telč - jezerní růže
03. Голашовице. Наследие Средневековья / Holašovice - odkaz středověku
04. Кромержиж. Течение времени / Kroměříž - plynutí času
05. Леднице-валтицкий комплекс. Сияющий самоцвет / Lednicko-valtický areál - zářící drahokam
06. Кутна Гора. Монте-Карло Средневековья / Kutná Hora - Monte Carlo středověku
07. Церковь Святого Яна Непомуцкого. Тайна языка / Kostel sv. Jana Nepomuckého na Zelené hoře - tajemství jazyka
08. Литомишль. Кровавый роман / Litomyšl - krvavý román
09. Тршебич. Уникальность множественности / Třebíč - jedinečnost mnohosti
10. Колонна Пресвятой Троицы в Оломоуце. Полнота веры / Sloup nejsvětější trojice v Olomouci - v plnosti víry
11. Вилла Тугендгат. Сердце из оникса / Vila Tugendhat - srdce z onyxu
12. Прага - разнообразие в единстве / Praha - rozmanitost v jednotě
13. Прага - единство в многообразии / Praha - jednota v rozmanitosti

Качество: SATRip
Формат: AVI
Видео кодек: DivX5
Аудио кодек: AC3
Видео: 720x400 25fps ~1800 Kbps
Аудио: AC3 2ch, 48kHz, 192 kbps

MediaInfo:

Format : AVI
Format/Info : Audio Video Interleave
File size : 374 MiB
Duration : 26mn 5s
Overall bit rate : 2 004 Kbps
Writing application : VirtualDubMod 1.5.10.3 | www.virtualdub-fr.org || (build 2550/release)
Writing library : VirtualDubMod build 2550/release
Video
ID : 0
Format : MPEG-4 Visual
Format profile : Advanced Simple@L5
Format settings, BVOP : 1
Format settings, QPel : No
Format settings, GMC : No warppoints
Format settings, Matrix : Default (MPEG)
Codec ID : DX50
Codec ID/Hint : DivX 5
Duration : 26mn 5s
Bit rate : 1 802 Kbps
Width : 720 pixels
Height : 400 pixels
Display aspect ratio : 16:9
Frame rate : 25.000 fps
Color space : YUV
Chroma subsampling : 4:2:0
Bit depth : 8 bits
Scan type : Progressive
Compression mode : Lossy
Bits/(Pixel*Frame) : 0.250
Stream size : 336 MiB (90%)
Writing library : XviD 1.2.1 (UTC 2008-12-04)
Audio
ID : 1
Format : AC-3
Format/Info : Audio Coding 3
Mode extension : CM (complete main)
Format settings, Endianness : Big
Codec ID : 2000
Duration : 26mn 5s
Bit rate mode : Constant
Bit rate : 192 Kbps
Channel(s) : 2 channels
Channel positions : Front: L R
Sampling rate : 48.0 KHz
Bit depth : 16 bits
Compression mode : Lossy
Stream size : 35.8 MiB (10%)
Alignment : Split accross interleaves
Interleave, duration : 40 ms (1.00 video frame)
Interleave, preload duration : 500 ms

Внимание:

Раздача ведётся путём добавления новых серий; при каждом добавлении создаётся новый торрент. Чтобы начать докачку новой серии, пользователям необходимо сделать следующее:
- Остановить скачивание.
- Удалить старый торрент у себя из клиента (старые серии удалять не надо).
- Скачать новый торрент и запустить его у себя в клиенте вместо старого, при этом указать клиенту путь в старую папку куда и должно происходить скачивание новых серий.
Добавлено
09. Тршебич. Уникальность множественности / Třebíč - jedinečnost mnohosti


Последний раз редактировалось: skorpionN (2016-06-06 20:39), всего редактировалось 5 раз(а)
[Профиль] [ЛС]

KiruhaDelMar

Стаж: 1 год 8 месяцев

Сообщений: 247



Награды: Нет

Торрент-статистика

Создавать темы 14-Янв-2016 21:51 (спустя 12 часов)

[Цитировать]

Неужели это самое интересное что ты мог найти в программе
[Профиль] [ЛС]

skorpionN ®

Пол:

Стаж: 1 год 8 месяцев

Сообщений: 591



Награды: 4 (Подробнее)

Top Releaser 2 (Количество: 1) Mega Seeder 1 (Количество: 1) Mega Seeder 2 (Количество: 1)
Торрент-статистика

Создавать темы 14-Янв-2016 21:57 (спустя 5 минут)

[Цитировать]

KiruhaDelMar, но почему? есть и BBC: Большое железнодорожное путешествие по континенту / Great Continental Railway Journeys [сезон 4 серии 1,2 из 6]+ завтра сделаю очередную серию. Да я другими делами занят.
[Профиль] [ЛС]

skorpionN ®

Пол:

Стаж: 1 год 8 месяцев

Сообщений: 591



Награды: 4 (Подробнее)

Mega Seeder 3 (Количество: 1) Mega Seeder 1 (Количество: 1) Top Releaser 2 (Количество: 1)
Торрент-статистика

Создавать темы 06-Июн-2016 21:18 (спустя 4 месяца 22 дня)

[Цитировать]

Полный комплект.
[Профиль] [ЛС]
Кто просматривает тему:

Показать сообщения:    

Текущее время: Сегодня 16:41

Часовой пояс: GMT



Вы не можете начинать темы
Вы не можете отвечать на сообщения
Вы не можете редактировать свои сообщения
Вы не можете удалять свои сообщения
Вы не можете голосовать в опросах
Вы не можете прикреплять файлы к сообщениям
Вы не можете скачивать файлы