365: Империя света / The Empire of Light [серии 1-3 из 3] (-) [---г., Документальный, познавательный, архитектура, история, DVB]

 
Автор Сообщение

skorpionN ®

Пол:

Стаж: 2 года 6 месяцев

Сообщений: 802



Награды: 4 (Подробнее)

Mega Seeder 3 (Количество: 1) Top Releaser 2 (Количество: 1) Mega Seeder 2 (Количество: 1)
Торрент-статистика

Создавать темы 02-Сен-2017 11:36

[Цитировать]

365: Империя света / The Empire of Light [серии 1-3 из 3]
Год выпуска: ---
Страна: Южная Корея
Жанр: Документальный, познавательный, архитектура, история
Продолжительность: 00:50:13+00:52:01+00:50:19
Перевод: Профессиональный (одноголосый), переведено компанией SDI Media по заказу ТПО Red Media
Режиссер: -
Описание: Цикл программ об архитектурных стилях Древнего Рима и Византии, Средневековой Европы и эпохи Возрождения. Авторы рассматривают различия стилей через призму отношения к свету. Круговой свет (Романский стиль) - символ единства, самоцентрирующаяся архитектура. Вертикальный свет (Готический стиль) - воля к материализму, движение к экспансивной архитектуре. И, наконец, архитектура эпохи Возрождения - это новый купол, объединяющий вертикаль и круг, небеса и Землю, разум и материю. Это символ самого человека.
Список серий:
01. Круговой свет (Закон круга. Наследие света)
02. Вертикальный свет (Воскрешение света)
03. Свет человека

Качество: DVB
Формат: MPEG-TS
Видео кодек: MPEG2
Аудио кодек: MPEG Audio
Видео: 720х576 (4:3) анаморфный (768x576) 25fps ~2500 Kbps
Аудио: MPEG Audio 2 2ch, 48kHz, 192 kbps

Скриншоты


MediaInfo:

Format : MPEG-TS
File size : 1.03 GiB
Duration : 52 min 1 s
Overall bit rate mode : Variable
Overall bit rate : 2 846 kb/s
Video
ID : 201 (0xC9)
Menu ID : 101 (0x65)
Format : MPEG Video
Format version : Version 2
Format profile : Main@Main
Format settings, BVOP : Yes
Format settings, Matrix : Custom
Format settings, GOP : M=3, N=15
Format settings, picture struc : Frame
Codec ID : 2
Duration : 52 min 1 s
Bit rate mode : Variable
Bit rate : 2 511 kb/s
Maximum bit rate : 9 800 kb/s
Width : 720 pixels
Height : 576 pixels
Display aspect ratio : 4:3
Frame rate : 25.000 FPS
Standard : PAL
Color space : YUV
Chroma subsampling : 4:2:0
Bit depth : 8 bits
Scan type : Interlaced
Scan order : Top Field First
Compression mode : Lossy
Bits/(Pixel*Frame) : 0.242
Time code of first frame : 00:00:00:00
Time code source : Group of pictures header
GOP, Open/Closed : Open
GOP, Open/Closed of first fram : Closed
Stream size : 934 MiB (88%)
Audio
ID : 301 (0x12D)
Menu ID : 101 (0x65)
Format : MPEG Audio
Format version : Version 1
Format profile : Layer 2
Codec ID : 3
Duration : 52 min 1 s
Bit rate mode : Constant
Bit rate : 192 kb/s
Channel(s) : 2 channels
Sampling rate : 48.0 kHz
Compression mode : Lossy
Stream size : 71.4 MiB (7%)
Language : Russian
[Профиль] [ЛС]
Кто просматривает тему:

Показать сообщения:    

Текущее время: Сегодня 02:06

Часовой пояс: GMT



Вы не можете начинать темы
Вы не можете отвечать на сообщения
Вы не можете редактировать свои сообщения
Вы не можете удалять свои сообщения
Вы не можете голосовать в опросах
Вы не можете прикреплять файлы к сообщениям
Вы не можете скачивать файлы