365: Замки Луары / The Châteaux of the Loire Valley [серии 1-9 из 9] (Жак Више / Jacques Vichet) [2012-2014 г.г., Документальный, архитектура, SATRip]

 
Автор Сообщение

skorpionN ®

Пол:

Стаж: 1 год 8 месяцев

Сообщений: 580



Награды: 4 (Подробнее)

Top Releaser 2 (Количество: 1) Mega Seeder 3 (Количество: 1) Mega Seeder 2 (Количество: 1)
Торрент-статистика

Создавать темы 28-Авг-2015 16:47

[Цитировать]

365: Замки Луары / The Châteaux of the Loire Valley [серии 1-9 из 8]
Год выпуска: 2012-2014
Страна: Франция, Blue Bird Productions
Жанр: Документальный, архитектура
Продолжительность: 9x~00:52:00
Перевод: Профессиональный (двухголосый), ТПО "Ред Медиа"
Режиссер: Жак Више / Jacques Vichet
Описание: Замки Луары - архитектурные сооружения, расположенные в долине реки Луары во Франции. В узком смысле под ними понимают замки (шато), которые находятся по берегам среднего течения Луары и её притоков — рек Мен, Шер, Эндр, Вьенны и Луар, начиная от Жьена, на территории двух административных районов — региона Центр (исторические области Турень, Орлеане, Берри) и региона Земли Луары (историческая область Анжу), и четырёх департаментов — Луаре, Луар и Шер, Эндр и Луара и Мен и Луара.
Обилие великолепных архитектурно-исторических памятников в этой части Франции определило занесение долины Луары от Сюлли-сюр-Луар до Шалон-сюр-Луар в Список всемирного наследия ЮНЕСКО. Большая часть замков была возведена в средние века, но значительно перестроена позднее, в эпоху Возрождения, когда французские короли жили на берегах Луары, её притоков или вблизи от них (XV—XVI века).
Список серий:
01. Королевский замок д'Амбуаз / The Royal Château of Amboise (2012)
02. Королевский замок Блуа / The Royal Château of Blois (2013)
03. Замок Шеверни / Château de Cheverny (2012)
04. Замок Шенонсо / Château de Chenonceau
05. Замок Азе-лё-Ридо / Château d'Azay-le-Rideau (2013)
06. Кло Люсе. Последний дом Леонардо да Винчи / The Clos Lucé. The Last house of Leonardo Da Vinci (2013)
07. Замок Шамбор / Château de Chambord (2014)
08. Замок Шомон-сюр-Луар / Château de Chaumont-sur-Loire (2014)
09 Замок Вилландри / The Chateau of Villandry (2012)

Качество: SATRip
Формат: AVI
Видео кодек: XviD
Аудио кодек: AC3
Видео: 720x400 25fps ~1800 Kbps
Аудио: AC3 2ch, 48kHz, 192 kbps

Скриншоты


MediaInfo:

Format : AVI
Format/Info : Audio Video Interleave
File size : 742 MiB
Duration : 51mn 59s
Overall bit rate : 1 996 Kbps
Writing application : TMPGEnc Video Mastering Works 5 Version. 5.0.6.38
Writing library : TMPGEnc Video Mastering Works 5 Version. 5.0.6.38
Video
ID : 0
Format : MPEG-4 Visual
Format profile : Advanced Simple@L5
Format settings, BVOP : 2
Format settings, QPel : No
Format settings, GMC : No warppoints
Format settings, Matrix : Default (H.263)
Muxing mode : Packed bitstream
Codec ID : XVID
Codec ID/Hint : XviD
Duration : 51mn 59s
Bit rate : 1 797 Kbps
Width : 720 pixels
Height : 400 pixels
Display aspect ratio : 16:9
Frame rate : 25.000 fps
Color space : YUV
Chroma subsampling : 4:2:0
Bit depth : 8 bits
Scan type : Progressive
Compression mode : Lossy
Bits/(Pixel*Frame) : 0.250
Stream size : 668 MiB (90%)
Writing library : XviD 73
Audio
ID : 1
Format : AC-3
Format/Info : Audio Coding 3
Mode extension : CM (complete main)
Format settings, Endianness : Big
Codec ID : 2000
Duration : 51mn 59s
Bit rate mode : Constant
Bit rate : 192 Kbps
Channel(s) : 2 channels
Channel positions : Front: L R
Sampling rate : 48.0 KHz
Bit depth : 16 bits
Compression mode : Lossy
Stream size : 71.4 MiB (10%)
Alignment : Aligned on interleaves
Interleave, duration : 240 ms (6.00 video frames)
Interleave, preload duration : 224 ms

Внимание! Раздача ведётся путём добавления новых выпусков

Внимание! Раздача ведётся путём добавления новых выпусков; при каждом добавлении создаётся новый торрент. Чтобы начать докачку нового выпуска, пользователям необходимо сделать следующее:
(1) остановить скачивание,
(2) удалить старый торрент у себя из клиента (старые серии удалять не надо),
(3) скачать новый торрент и запустить его у себя в клиенте вместо старого, при этом указать клиенту путь в старую папку куда и должно происходить скачивание новых выпусков.
Ваш клиент при этом должен произвести хеширование (проверку) старой папки (если не производит сам - помогите ему сделать это). В результате он будет докачивать только те выпуски, которых у Вас ещё нет. Старые выпуски при этом не удаляются, а продолжают раздаваться!
Eсли Вы уже удалили старые выпуски, то предотвратить их повторную закачку можно, сняв галочки в соответствующих местах при запуске нового торрента. По возможности, желательно не удалять старые выпуски как можно дольше, чтобы релизёр не только продолжал раздавать старые выпуски, но и смог сконцентрироваться на новых.
Добавлено
09 Замок Вилландри / The Chateau of Villandry (2012)


Последний раз редактировалось: skorpionN (2015-10-17 16:24), всего редактировалось 21 раз(а)
[Профиль] [ЛС]

KiruhaDelMar

Стаж: 1 год 8 месяцев

Сообщений: 243



Награды: Нет

Торрент-статистика

Создавать темы 29-Авг-2015 12:25 (спустя 19 часов)

[Цитировать]

Такими кинами я буду долго новую группу раскручивать paratrooper
[Профиль] [ЛС]

skorpionN ®

Пол:

Стаж: 1 год 8 месяцев

Сообщений: 580



Награды: 4 (Подробнее)

Mega Seeder 3 (Количество: 1) Mega Seeder 1 (Количество: 1) Top Releaser 2 (Количество: 1)
Торрент-статистика

Создавать темы 30-Авг-2015 14:38 (спустя 1 день 2 часа)

[Цитировать]

Много ты понимаеш в колбасных отрезках slow
[Профиль] [ЛС]
Кто просматривает тему:

Показать сообщения:    

Текущее время: Сегодня 15:58

Часовой пояс: GMT



Вы не можете начинать темы
Вы не можете отвечать на сообщения
Вы не можете редактировать свои сообщения
Вы не можете удалять свои сообщения
Вы не можете голосовать в опросах
Вы не можете прикреплять файлы к сообщениям
Вы не можете скачивать файлы