365: Замки и дворцы Европы / Castles and Palaces of Europe (Schlösserwelten Europas) [серии 1-5 из 5] (Jeremy J.P. Fekete / Джереми Фекете, Gero von Boehm / Геро фон Бём) [2013 г., Документальный, архитектура, искусство, история, SATRip]

 
Автор Сообщение

skorpionN ®

Пол:

Стаж: 1 год 8 месяцев

Сообщений: 578



Награды: 4 (Подробнее)

Top Releaser 2 (Количество: 1) Mega Seeder 2 (Количество: 1) Mega Seeder 3 (Количество: 1)
Торрент-статистика

Создавать темы 28-Окт-2015 12:47

[Цитировать]

365: Замки и дворцы Европы / Castles and Palaces of Europe (Schlösserwelten Europas) [серии 1-5 из 5]
Год выпуска: 2013
Страна: Германия, Interscience Film GmbH (production company), Crim Productions (co-production), Stefilm (co-production)
Жанр: Документальный, архитектура, искусство, история
Продолжительность: 5x~00:52:00
Перевод: Профессиональный (двухголосый), переведено и озвучено компанией «Игмар»
Режиссер: Джереми Фекете / Jeremy J.P. Fekete, Геро фон Бём / Gero von Boehm
Описание: Документальный сериал о красивейших замках Европы, владельцы которых были королями или могли сравниться с любым монархом своим богатством и образованностью. Ни в одной другой части мира не сосредоточено такое количество замков, как в Европе. Телезрителю предлагается путешествие по замкам и дворцам долины реки Луара во Франции, юга Германии, юга-востока Англии, итальянского Пьемонта и побережья Португалии.
Список серий:
01. Долина Луары - Франция / Loire Valley in France
02. Баден - Вюрттемберг - Германия / Baden-Württemberg in Germany
03. Южная Англия / Southern England
04. Пьемонт - Италия / Piemont in Italien
05. Эстремадура - Португалия / Estremadura in Portugal

Качество: SATRip
Формат: AVI
Видео кодек: XviD
Аудио кодек: AC3
Видео: 720x400 25fps ~1800 Kbps
Аудио: AC3 2ch, 48kHz, 192 kbps

Скриншоты


MediaInfo:

Format : AVI
Format/Info : Audio Video Interleave
File size : 743 MiB
Duration : 51mn 59s
Overall bit rate : 1 999 Kbps
Writing application : TMPGEnc Video Mastering Works 5 Version. 5.0.6.38
Writing library : TMPGEnc Video Mastering Works 5 Version. 5.0.6.38
Video
ID : 0
Format : MPEG-4 Visual
Format profile : Advanced Simple@L5
Format settings, BVOP : 2
Format settings, QPel : No
Format settings, GMC : No warppoints
Format settings, Matrix : Default (H.263)
Muxing mode : Packed bitstream
Codec ID : XVID
Codec ID/Hint : XviD
Duration : 51mn 59s
Bit rate : 1 799 Kbps
Width : 720 pixels
Height : 400 pixels
Display aspect ratio : 16:9
Frame rate : 25.000 fps
Color space : YUV
Chroma subsampling : 4:2:0
Bit depth : 8 bits
Scan type : Progressive
Compression mode : Lossy
Bits/(Pixel*Frame) : 0.250
Stream size : 669 MiB (90%)
Writing library : XviD 73
Audio
ID : 1
Format : AC-3
Format/Info : Audio Coding 3
Mode extension : CM (complete main)
Format settings, Endianness : Big
Codec ID : 2000
Duration : 51mn 59s
Bit rate mode : Constant
Bit rate : 192 Kbps
Channel(s) : 2 channels
Channel positions : Front: L R
Sampling rate : 48.0 KHz
Bit depth : 16 bits
Compression mode : Lossy
Stream size : 71.4 MiB (10%)
Alignment : Aligned on interleaves
Interleave, duration : 240 ms (6.00 video frames)
Interleave, preload duration : 224 ms
Добавлено
02. Баден - Вюрттемберг - Германия / Baden-Württemberg in Germany
[Профиль] [ЛС]
Кто просматривает тему:

Показать сообщения:    

Текущее время: Сегодня 20:08

Часовой пояс: GMT



Вы не можете начинать темы
Вы не можете отвечать на сообщения
Вы не можете редактировать свои сообщения
Вы не можете удалять свои сообщения
Вы не можете голосовать в опросах
Вы не можете прикреплять файлы к сообщениям
Вы не можете скачивать файлы