365: Европа в Средние века / Wege aus der Finsternis. Europa im Mittelalter (Europe in the Middle Ages) [серии 1-4 из 4] (Christian Twente) [2004 г., Документальный, игровой, история, DVB]

 
Автор Сообщение

skorpionN ®

Пол:

Стаж: 3 года 4 месяца

Сообщений: 944



Награды: 4 (Подробнее)

Mega Seeder 3 (Количество: 1) Top Releaser 2 (Количество: 1) Mega Seeder 1 (Количество: 1)
Торрент-статистика

Создавать темы 15-Май-2018 13:38

[Цитировать]

365: Европа в Средние века / Wege aus der Finsternisю Europa im Mittelalter (Europe in the Middle Ages)
Год выпуска: 2004
Страна: Германия, Франция, Австралия, Arte, ZDF, ORF, SBS
Жанр: Документальный, игровой, история
Продолжительность: 4x~00:52:09
Перевод: Профессиональный (олноголосый), SDI Media
Режиссер: Christian Twente
Описание:
Крестьяне, рыцари, бюргеры, монахи... Четыре средневековых сословия. Они жили во времена, которые часто считают тёмными, дикими и жестокими. Но этот же период стал зарёй нового времени. Четырехсерийный документальный фильм проливает свет на эпоху, имевшую огромное значение для современной Европы. В нём рассказывается о научных, технических и культурных достижениях Средних веков, которые дали толчок техническому прогрессу и продолжают оказывать влияние на западное общество и по сей день. В каждой серии авторы фильма следуют за героем, принадлежащим одному из основных сословий, путешествуя по всей Европе, чтобы лучше представить себе мир рыцарей, монахов, крестьян и горожан, живших в Средние века.
Список серий:
01. Рыцари и турниры / Von Rittern und Turnieren (Knights and Tournaments)
02. Монахи и еретики / Von Monchen und Ketzern (Monks and Heretics)
03. Крестьяне и дворяне / Von Bauern und Edelmannern (Peasants and Nobles)
04. Города и соборы / Von Stadten und Kathedralen (Cities and Cathedrals)

Качество: DVB
Формат: MPEG
Видео кодек: MPEG2
Аудио кодек: AC3
Видео: 720х576 (4:3) анаморфный (768x576) 25fps ~2760 Kbps
Аудио: MPEG Audio 2 2ch, 48kHz, 192 kbps

Скриншоты


MediaInfo:

Format : MPEG-TS
File size : 1.13 GiB
Duration : 52 min 8 s
Overall bit rate mode : Variable
Overall bit rate : 3 111 kb/s
Video
ID : 201 (0xC9)
Menu ID : 101 (0x65)
Format : MPEG Video
Format version : Version 2
Format profile : Main@Main
Format settings, BVOP : Yes
Format settings, Matrix : Custom
Format settings, GOP : M=3, N=15
Format settings, picture struc : Frame
Codec ID : 2
Duration : 52 min 8 s
Bit rate mode : Variable
Bit rate : 2 763 kb/s
Maximum bit rate : 9 800 kb/s
Width : 720 pixels
Height : 576 pixels
Display aspect ratio : 4:3
Frame rate : 25.000 FPS
Standard : PAL
Color space : YUV
Chroma subsampling : 4:2:0
Bit depth : 8 bits
Scan type : Interlaced
Scan order : Top Field First
Compression mode : Lossy
Bits/(Pixel*Frame) : 0.266
Time code of first frame : 00:00:00:00
Time code source : Group of pictures header
GOP, Open/Closed : Open
GOP, Open/Closed of first fram : Closed
Stream size : 1.01 GiB (89%)
Audio
ID : 301 (0x12D)
Menu ID : 101 (0x65)
Format : MPEG Audio
Format version : Version 1
Format profile : Layer 2
Codec ID : 3
Duration : 52 min 8 s
Bit rate mode : Constant
Bit rate : 192 kb/s
Channel(s) : 2 channels
Sampling rate : 48.0 kHz
Compression mode : Lossy
Stream size : 71.6 MiB (6%)
Language : Russian
[Профиль] [ЛС]
Кто просматривает тему:

Показать сообщения:    

Текущее время: Сегодня 15:42

Часовой пояс: GMT



Вы не можете начинать темы
Вы не можете отвечать на сообщения
Вы не можете редактировать свои сообщения
Вы не можете удалять свои сообщения
Вы не можете голосовать в опросах
Вы не можете прикреплять файлы к сообщениям
Вы не можете скачивать файлы