365: Гинденбург и Гитлер / Hindenburg & Hitler (Hindenburg - Der Mann, der Hitler an die Macht verhalf) (Кристоф Вайнерт / Christoph Weinert) [2013 г., Документальный, история, биографический, SATRip]

 
Автор Сообщение

skorpionN ®

Пол:

Стаж: 1 год 8 месяцев

Сообщений: 578



Награды: 4 (Подробнее)

Mega Seeder 1 (Количество: 1) Mega Seeder 3 (Количество: 1) Mega Seeder 2 (Количество: 1)
Торрент-статистика

Создавать темы 08-Ноя-2015 09:57

[Цитировать]

365: Гинденбург и Гитлер / Hindenburg & Hitler (Hindenburg - Der Mann, der Hitler an die Macht verhalf)
Год выпуска: 2013
Страна: Германия, NDR / Arte / Looks
Жанр: Документальный, история, биографический
Продолжительность: 00:51:36
Перевод: Профессиональный (одноголосый), студия "SDI Media" по заказу ТПО "Ред Медиа"
Режиссер: Кристоф Вайнерт / Christoph Weinert
Описание: До появления Гитлера самым харизматичным политическим лидером Германии был Пауль фон Гинденбург (1847-1934). Он был самым успешным немецким генералом Первой мировой войны, благодаря чему стал героем в глазах народа. После войны его дважды избирали рейсхпрезидентом. Единственный в истории Германии человек, избранный главой государства на всенародных выборах. Занимал пост до конца жизни. Его соперником был политический выскочка Адольф Гитлер. Гинденбург презирал его. Но всего через несколько лет он своими руками приведет Гитлера к власти. Почему же?
Качество: SATRip
Формат: AVI
Видео кодек: DivX 5
Аудио кодек: AC3
Видео: 720x400 25fps 1800kbps
Аудио: AC3, 2 ch, 192kbps

Скриншоты


MediaInfo:

Format : AVI
Format/Info : Audio Video Interleave
File size : 739 MiB
Duration : 51mn 36s
Overall bit rate : 2 003 Kbps
Writing application : VirtualDubMod 1.5.10.3 | www.virtualdub-fr.org || (build 2550/release)
Writing library : VirtualDubMod build 2550/release
Video
ID : 0
Format : MPEG-4 Visual
Format profile : Advanced Simple@L5
Format settings, BVOP : 1
Format settings, QPel : No
Format settings, GMC : No warppoints
Format settings, Matrix : Default (MPEG)
Codec ID : DX50
Codec ID/Hint : DivX 5
Duration : 51mn 36s
Bit rate : 1 801 Kbps
Width : 720 pixels
Height : 400 pixels
Display aspect ratio : 16:9
Frame rate : 25.000 fps
Color space : YUV
Chroma subsampling : 4:2:0
Bit depth : 8 bits
Scan type : Progressive
Compression mode : Lossy
Bits/(Pixel*Frame) : 0.250
Stream size : 665 MiB (90%)
Writing library : XviD 1.2.1 (UTC 2008-12-04)
Audio
ID : 1
Format : AC-3
Format/Info : Audio Coding 3
Mode extension : CM (complete main)
Format settings, Endianness : Big
Codec ID : 2000
Duration : 51mn 36s
Bit rate mode : Constant
Bit rate : 192 Kbps
Channel(s) : 2 channels
Channel positions : Front: L R
Sampling rate : 48.0 KHz
Bit depth : 16 bits
Compression mode : Lossy
Stream size : 70.9 MiB (10%)
Alignment : Split accross interleaves
Interleave, duration : 40 ms (1.00 video frame)
Interleave, preload duration : 500 ms
[Профиль] [ЛС]
Кто просматривает тему:

Показать сообщения:    

Текущее время: Сегодня 02:44

Часовой пояс: GMT



Вы не можете начинать темы
Вы не можете отвечать на сообщения
Вы не можете редактировать свои сообщения
Вы не можете удалять свои сообщения
Вы не можете голосовать в опросах
Вы не можете прикреплять файлы к сообщениям
Вы не можете скачивать файлы