365: Вызов зодчим. Страсбургский собор / Le Défi des Bâtisseurs. La Cathédrale de Strasbourg / The builder's challenge - Strasbourg (Марк Ямпольски / Marc Jampolsky) [2012 г., Документальный,постановочный, архитектура, SATRip]

 
Автор Сообщение

skorpionN ®

Пол:

Стаж: 1 год 8 месяцев

Сообщений: 580



Награды: 4 (Подробнее)

Mega Seeder 2 (Количество: 1) Mega Seeder 3 (Количество: 1) Top Releaser 2 (Количество: 1)
Торрент-статистика

Создавать темы 22-Фев-2016 15:51

[Цитировать]

365: Вызов зодчим. Страсбургский собор / Le Défi des Bâtisseurs. La Cathédrale de Strasbourg / The builder's challenge - Strasbourg
Год выпуска: 2012
Страна: Франция, ARTE Geie, Seppia Film, ZDF, IndiFilm
Жанр: Документальный,постановочный, архитектура
Продолжительность: 00:52:17
Перевод: Профессиональный (двухголосый), компания "SDI Media" по заказу ТПО "Ред Медиа"
Режиссер: Марк Ямпольски / Marc Jampolsky
В ролях: Ксавье Буланже / Xavier Boulanger (Erwin de Steinbach), Жан Лоррэн / Jean Lorrain (Ulrich d'Ensingen), Филипп Орель / Philippe Ohrel (Jean Hültz), Александр Кантини / Alexandre Cantini (Klaus de Lohre), Оливер Пехачик / Olivier Piechaczyk (Maître Guerlach)
Описание: Построенный в эпоху расцвета готической архитектуры, Страсбургский собор являет собой гармоничное сочетание пропорций и скульптурного декора. Среди главных строителей собора были Ульрих фон Энсинген и Эрвин фон Штайнбах. Северная башня высотой в 142 м, ажурный ступенчатый шпиль которой полностью выполнен из песчаника по проекту кельнского мастера Иоганна Хюльца, была вплоть до конца XIX века самым высоким сооружением, полностью выполненным из камня. Документальный фильм Марка Ямпольски познакомит с теми, кто участвовал в создании собора: авторами его проекта, архитекторами и зодчими, возвратит к истокам одной из грандиозных строек своего времени.
Качество: SATRip
Формат: AVI
Видео кодек: DivX
Аудио кодек: AC3
Видео: 720x400 25fps ~1800 Kbps
Аудио: AC3 2ch, 48kHz, 192 kbps

Скриншоты


MediaInfo:

Format : AVI
Format/Info : Audio Video Interleave
File size : 750 MiB
Duration : 52mn 17s
Overall bit rate : 2 006 Kbps
Writing application : VirtualDubMod 1.5.10.3 | www.virtualdub-fr.org || (build 2550/release)
Writing library : VirtualDubMod build 2550/release
Video
ID : 0
Format : MPEG-4 Visual
Format profile : Advanced Simple@L5
Format settings, BVOP : 1
Format settings, QPel : No
Format settings, GMC : No warppoints
Format settings, Matrix : Default (MPEG)
Codec ID : DX50
Codec ID/Hint : DivX 5
Duration : 52mn 17s
Bit rate : 1 805 Kbps
Width : 720 pixels
Height : 400 pixels
Display aspect ratio : 16:9
Frame rate : 25.000 fps
Color space : YUV
Chroma subsampling : 4:2:0
Bit depth : 8 bits
Scan type : Progressive
Compression mode : Lossy
Bits/(Pixel*Frame) : 0.251
Stream size : 675 MiB (90%)
Writing library : XviD 1.2.1 (UTC 2008-12-04)
Audio
ID : 1
Format : AC-3
Format/Info : Audio Coding 3
Mode extension : CM (complete main)
Format settings, Endianness : Big
Codec ID : 2000
Duration : 52mn 17s
Bit rate mode : Constant
Bit rate : 192 Kbps
Channel(s) : 2 channels
Channel positions : Front: L R
Sampling rate : 48.0 KHz
Bit depth : 16 bits
Compression mode : Lossy
Stream size : 71.8 MiB (10%)
Alignment : Split accross interleaves
Interleave, duration : 40 ms (1.00 video frame)
Interleave, preload duration : 500 ms


Последний раз редактировалось: skorpionN (2016-02-23 08:55), всего редактировалось 1 раз
[Профиль] [ЛС]

KiruhaDelMar

Стаж: 1 год 8 месяцев

Сообщений: 243



Награды: Нет

Торрент-статистика

Создавать темы 22-Фев-2016 19:20 (спустя 3 часа)

[Цитировать]

Зодчий ты наш bm
[Профиль] [ЛС]
Кто просматривает тему:

Показать сообщения:    

Текущее время: Сегодня 15:55

Часовой пояс: GMT



Вы не можете начинать темы
Вы не можете отвечать на сообщения
Вы не можете редактировать свои сообщения
Вы не можете удалять свои сообщения
Вы не можете голосовать в опросах
Вы не можете прикреплять файлы к сообщениям
Вы не можете скачивать файлы