365: Винсент. Нерассказанная история нашего дяди. Биография Винсента Ван Гога / Vincent - The Untold Story of our Uncle, a biography the life & times of Vincent van Gogh [серии 1-7](Дай Кёндерс, Джон Кёндерс) [2012 г., Документальный, биография, DVB]

 
Author Message

skorpionN ®

Gender:

Longevity: 5 years

Posts: 944



: 4 ()

Top Releaser 2 (1) Mega Seeder 2 (1) Mega Seeder 1 (1)
Торрент-статистика

Post 27-Jun-2017 12:13

[Quote]

365: Винсент. Нерассказанная история нашего дяди. Биография Винсента Ван Гога / Vincent - The Untold Story of our Uncle, a biography the life & times of Vincent van Gogh [серии 1-7]
Год выпуска: 2012
Страна: Австралия, Mayfield Productions
Жанр: Документальный, биография
Продолжительность: ~7x 00:52:00
Перевод: Профессиональный (одноголосый)
Режиссер: Дай Кёндерс / Di Koenders, Джон Кёндерс / John Koenders
Описание: Биография знаменитого художника Винсента Ван Гога (1853-1890) в воспоминаниях и письмах членов его семьи.
За свою жизнь Винсент Ван Гог создал более 800 картин и 700 рисунков в самых разных жанрах, однако ярче всего его талант проявился в пейзаже: именно в нем находил выход его холерический взрывной темперамент. В подвижно нервной живописной фактуре его картин отразилось душевное состояние художника: он страдал психической болезнью, которая в итоге привела его к самоубийству.
Его будут помнить всегда в ярких желтых лепестках его "Подсолнухов", сияющих звездах его "Звездной ночи", в золотисто-коричневых тонах земли на полотнах, изображающих крестьян за работой. Ради искусства он пожертвовал всем. И теперь искусство увековечило его.
Список серий:
01. Винсент и его семья / Dedicated to Vincent by his Family
02. Адские муки / Fire & Brimstone
03. О красках и крестьянах / Of Peasants & Paints
04. Возвращение к свету / Back to the Right
05. О солнце и подсолнухах / Of Sun and Subflowers
06. Душа в муках / A Soul in Torment
07. Путешествие к звезде / The Journey to a Star

Качество: DVB
Формат: MPEG - TS
Видео кодек: H.264
Аудио кодек: MPEG Audio
Видео: 720х576 (4:3) анаморфной (768x576) 25fps ~2300 Kbps
Аудио: MP2 2ch, 48kHz, 192 kbps

Скриншоты


MediaInfo:

Формат файла: .ts (MPEG-TS)
Размер файла: 1001,23 MB (1 049 870 739 bytes)
Длительность: 53mn 15s
Навигация по главам: Нет
Битрейт (все потоки): 2 628 Kbps
Тип битрейта (все потоки): Variable
Обложка: Отсутствует
Название: 01_Dedicated to Vincent by his Family
Тип потока: Видео
Длительность: 00:53:15
Кодек: AVC
Кодек/описание: Advanced Video Codec
Кодек/профиль: High@L4.1
Кодек/ID: 27
Кодек/CABAC: Yes
Кодек/ReFrames: 4 frames
Размеры изображения: 720 x 576 (4:3)
Частота кадров: 25.000 fps
Размер потока: 878 MiB (88%)
Битрейт: 2 304 Kbps
Битрейт/макс: 40.0 Mbps
Битрейт/тип: VBR
Стандарт: PAL
Цветовое пространство: YUV
Тип развёртки: MBAFF
Колориметрия: 4:2:0
Глубина: 8 bits
Тип потока: Звук #1
Длительность: 00:53:15.720
Кодек: MPEG Audio
Кодек/профиль: Layer 2
Кодек/ID: 3
Частота дискретизации: 48.0 KHz
Каналов: 2 channels
Битрейт: 192 Kbps
Битрейт/тип: Constant
Размер потока: 73.1 MiB (7%)
Метод сжатия: Lossy
[Profile] [PM]
Кто просматривает тему:

Display posts from previous:    

The time now is: Today 14:36

All times are GMT



You cannot post new topics in this forum
You cannot reply to topics in this forum
You cannot edit your posts in this forum
You cannot delete your posts in this forum
You cannot vote in polls in this forum
You cannot attach files in this forum
You cannot download files in this forum