33 / The 33 (2015) BDRip 720p | D

 
Автор Сообщение

BOSS ®

Пол:

Стаж: 2 года 1 месяц

Сообщений: 3712

Откуда: ODESSA



Награды: 20 (Подробнее)

Mega Seeder 4 (Количество: 1) Top Releaser 3 (Количество: 1) Mega Seeder 5 (Количество: 1)
Торрент-статистика

Создавать темы 17-Авг-2016 04:50

[Цитировать]

33 / The 33
Страна: Чили США
Производство: Alcon Entertainment, Dynamo, FABULA, Half Circle, Phoenix Pictures
Год выпуска: 2015
Жанр: драма, биография, история
Продолжительность: 02:07:10
Режиссер: Патрисия Ригген
Авторы сценария: Микко Аланн, Крэйг Бортен, Майкл Томас
Продюсеры: Роберт Кац, Эдвард МакГерн, Майк Медавой
В ролях: Антонио Бандерас, Родриго Санторо, Жюльет Бинош, Джеймс Бролин, Лу Даймонд Филлипс, Марио Касас, Джейкоб Варгас, Хуан Пабло Раба
Описание: Фильм, основанный на реальных событиях, расскажет о тридцати трёх чилийских шахтёрах, которые в 2010 году на 69 дней оказались в ловушке под землёй...

Перевод: Профессиональный (полное дублирование) | SDI Media
Субтитры: английские-Качество: BDRip 720p
Формат: МКV
Видео кодек: AVC
Аудио кодек: АС3 | DTS
Видео: 1280x534 (2.40:1), 23.976 fps, MPEG-4 AVC ~7 500 kbps avg
Аудио №1: 48 kHz, AC3 Dolby Digital, 2/0 (L,R) ch, ~192 kbps | RUS / SDI Media
Аудио №2: 48 kHz, Digital Theater Systems, 3/2 (L,C,R,l,r) + LFE ch, ~1509 kbps | ENG
Формат субтитров: UTF-8 Plain Text
Бюджет: $26 000 000
Дата премьеры (мир): 2 августа 2015
Дата премьеры (РФ): Январь 2016, «Каро-Премьер»

Media Info

General
Уникальный идентификатор : 204915674059338337167207100301788407441 (0x9A2952C21E680C7FA6425D4F5DD56691)
Полное имя : The.33.2015.D.BluRay.720p.mkv
Формат : Matroska
Версия формата : Version 4 / Version 2
Размер файла : 8,34 Гбайт
Продолжительность : 2 ч. 7 м.
Общий поток : 9388 Кбит/сек
Дата кодирования : UTC 2016-08-17 00:04:51
Программа кодирования : mkvmerge v8.3.0 ('Over the Horizon') 64bit
Библиотека кодирования : libebml v1.3.1 + libmatroska v1.4.2
Видео
Идентификатор : 1
Формат : AVC
Формат/Информация : Advanced Video Codec
Профиль формата : High@L4.1
Параметр CABAC формата : Да
Параметр ReFrames формата : 12 кадров
Идентификатор кодека : V_MPEG4/ISO/AVC
Продолжительность : 2 ч. 7 м.
Битрейт : 7500 Кбит/сек
Ширина : 1280 пикселей
Высота : 534 пикселя
Соотношение сторон : 2,40:1
Режим частоты кадров : Постоянный
Частота кадров : 23,976 кадра/сек
Цветовое пространство : YUV
Субдискретизация насыщенности : 4:2:0
Битовая глубина : 8 бит
Тип развёртки : Прогрессивная
Бит/(Пиксели*Кадры) : 0.458
Размер потока : 6,66 Гбайт (80%)
Библиотека кодирования : x264 core 146 r2538 121396c
Настройки программы : cabac=1 / ref=12 / deblock=1:-2:-1 / analyse=0x3:0x133 / me=umh / subme=11 / psy=1 / psy_rd=1.05:1.00 / mixed_ref=1 / me_range=32 / chroma_me=1 / trellis=2 / 8x8dct=1 / cqm=0 / deadzone=21,11 / fast_pskip=0 / chroma_qp_offset=-4 / threads=6 / lookahead_threads=1 / sliced_threads=0 / nr=0 / decimate=0 / interlaced=0 / bluray_compat=0 / constrained_intra=0 / bframes=8 / b_pyramid=2 / b_adapt=2 / b_bias=0 / direct=3 / weightb=1 / open_gop=0 / weightp=2 / keyint=240 / keyint_min=23 / scenecut=40 / intra_refresh=0 / rc_lookahead=60 / rc=crf / mbtree=0 / crf=17.5 / qcomp=0.60 / qpmin=0 / qpmax=69 / qpstep=4 / vbv_maxrate=40000 / vbv_bufsize=30000 / crf_max=0.0 / nal_hrd=none / filler=0 / ip_ratio=1.40 / pb_ratio=1.30 / aq=1:1.00
Язык : English
Default : Да
Forced : Нет
Аудио #1
Идентификатор : 2
Формат : AC-3
Формат/Информация : Audio Coding 3
Расширение режима : CM (complete main)
Параметр Endianness формата : Big
Идентификатор кодека : A_AC3
Продолжительность : 2 ч. 7 м.
Вид битрейта : Постоянный
Битрейт : 192 Кбит/сек
Каналы : 2 канала
Расположение каналов : Front: L R
Частота : 48,0 КГц
Битовая глубина : 16 бит
Метод сжатия : С потерями
Размер потока : 175 Мбайт (2%)
Заголовок : SDI Media
Язык : Russian
Default : Да
Forced : Нет
Аудио #2
Идентификатор : 3
Формат : DTS
Формат/Информация : Digital Theater Systems
Режим : 16
Параметр Endianness формата : Big
Идентификатор кодека : A_DTS
Продолжительность : 2 ч. 7 м.
Вид битрейта : Постоянный
Битрейт : 1509 Кбит/сек
Каналы : 6 каналов
Расположение каналов : Front: L C R, Side: L R, LFE
Частота : 48,0 КГц
Битовая глубина : 24 бит
Метод сжатия : С потерями
Размер потока : 1,34 Гбайт (16%)
Язык : English
Default : Нет
Forced : Нет
Текст
Идентификатор : 4
Формат : UTF-8
Идентификатор кодека : S_TEXT/UTF8
Идентификатор кодека/Информация : UTF-8 Plain Text
Язык : English
Default : Нет
Forced : Нет
Меню
00:00:00.000 : en:00:00:00.000
00:11:13.965 : en:00:11:13.965
00:21:10.436 : en:00:21:10.436
00:30:22.362 : en:00:30:22.362
00:41:54.679 : en:00:41:54.679
00:51:01.684 : en:00:51:01.684
01:01:35.317 : en:01:01:35.317
01:11:18.983 : en:01:11:18.983
01:24:02.412 : en:01:24:02.412
01:34:12.689 : en:01:34:12.689
01:45:17.561 : en:01:45:17.561
01:56:48.460 : en:01:56:48.460

Скриншоты

[Профиль] [ЛС]
Показать сообщения:    

Текущее время: Сегодня 02:46

Часовой пояс: GMT



Вы не можете начинать темы
Вы не можете отвечать на сообщения
Вы не можете редактировать свои сообщения
Вы не можете удалять свои сообщения
Вы не можете голосовать в опросах
Вы не можете прикреплять файлы к сообщениям
Вы не можете скачивать файлы