31: Праздник смерти / 31 (2016) WEB-DL 1080p | iTunes

 
Автор Сообщение

Russian Mafia ®

Пол:

Стаж: 1 год 8 месяцев

Сообщений: 4253



Награды: 10 (Подробнее)

Top Releaser 2 (Количество: 1) За внесенный вклад в развитие сайта (Количество: 1) Top Releaser 3 (Количество: 1)
Торрент-статистика

Создавать темы 09-Окт-2016 12:54

[Цитировать]

Информация о фильме
Название: 31: Праздник смерти
Оригинальное название: 31
Год выпуска: 2016
Страна: США, Великобритания
Жанр: ужасы, триллер-Перевод: Профессиональный многоголосый [iTunes]
Продолжительность: 01:38:21-Режиссер: Роб Зомби
В ролях: Шери Мун Зомби (Charly), Джеффри Дэниэл Филлипс (Roscoe Pepper), Лоуренс Хилтон-Джакобс (Panda Thomas), Мег Фостер (Venus Virgo), Кевин Джексон (Levon Wally), Малкольм МакДауэлл (Father Murder), Джейн Карр (Sister Serpent), Джуди Гисон (Sister Dragon), Ричард Брэйк (Doom-Head), Панчо Молер (Sick-Head), Дэвид Ури (Schizo-Head), Лью Темпл (Psycho-Head)-Описание:
История пяти людей, которые были похищены за пять дней до Хэллоуина и оказались пленниками в сотворенном человеком аду. Там им предстоит сыграть на выживание в жестокой игре под названием «31».-Рейтинг:

MPAA: R - Лицам до 17 лет обязательно присутствие взрослого-Качество: WEB-DL 1080p
Формат: MKV
Видео: AVC, 1918x800 (2.40:1), 4466 kbps, 25 fps, 0,116 bpp
Аудио: русский / AC3 / 5.1 / 48 kHz / 384 kbps / |MVO, iTunes|
Навигация по главам: есть
Сэмпл-

ОтчетМедиаИнфо

Общее
Уникальный идентификатор : 191235441734365943542255501206734437070 (0x8FDE9B3AD4A1A780A3379A4FDD2EFACE)
Полное имя : E:31.2016.D.1080p.WEB-DL.mkv
Формат : Matroska
Версия формата : Version 4 / Version 2
Размер файла : 3,40 Гбайт
Продолжительность : 1 ч. 38 м.
Общий поток : 4950 Кбит/сек
Дата кодирования : UTC 2016-10-09 11:17:44
Программа кодирования : mkvmerge v9.4.2 ('So High') 64bit
Библиотека кодирования : libebml v1.3.4 + libmatroska v1.4.5
Видео
Идентификатор : 1
Формат : AVC
Формат/Информация : Advanced Video Codec
Профиль формата : High@L4
Параметр CABAC формата : Да
Параметр ReFrames формата : 5 кадров
Идентификатор кодека : V_MPEG4/ISO/AVC
Продолжительность : 1 ч. 38 м.
Битрейт : 4564 Кбит/сек
Ширина : 1918 пикселей
Высота : 800 пикселей
Соотношение сторон : 2,40:1
Режим частоты кадров : Постоянный
Частота кадров : 25,000 кадров/сек
Цветовое пространство : YUV
Субдискретизация насыщенности : 4:2:0
Битовая глубина : 8 бит
Тип развёртки : Прогрессивная
Бит/(Пиксели*Кадры) : 0.119
Размер потока : 3,14 Гбайт (92%)
Язык : English
Default : Да
Forced : Нет
Цветовой диапазон : Limited
Основные цвета : BT.709
Характеристики трансфера : BT.709
Коэффициенты матрицы : BT.709
Аудио
Идентификатор : 2
Формат : AC-3
Формат/Информация : Audio Coding 3
Расширение режима : CM (complete main)
Параметр Endianness формата : Big
Идентификатор кодека : A_AC3
Продолжительность : 1 ч. 38 м.
Вид битрейта : Постоянный
Битрейт : 384 Кбит/сек
Каналы : 6 каналов
Расположение каналов : Front: L C R, Side: L R, LFE
Частота : 48,0 КГц
Частота кадров : 31,250 кадров/сек (1536 spf)
Метод сжатия : С потерями
Размер потока : 270 Мбайт (8%)
Язык : Russian
Default : Да
Forced : Да
Меню
00:00:00.000 : en:Глава 1
00:07:06.160 : en:Глава 2
00:13:18.400 : en:Глава 3
00:18:20.640 : en:Глава 4
00:23:35.039 : en:Глава 5
00:29:28.519 : en:Глава 6
00:36:11.959 : en:Глава 7
00:41:34.598 : en:Глава 8
00:46:59.518 : en:Глава 9
00:52:17.157 : en:Глава 10
00:57:29.236 : en:Глава 11
01:03:53.355 : en:Глава 12
01:09:24.355 : en:Глава 13
01:14:35.195 : en:Глава 14
01:19:59.714 : en:Глава 15
01:26:04.753 : en:Глава 16
01:31:18.313 : en:Глава 17

Скриншоты

[Профиль] [ЛС]
Кто просматривает тему:

Форум Тема Автор Размер
Фильмы 2016 года 31: Праздник смерти / 31 (2016) WEB-DLRip | iTunes Russian Mafia 1.37 GB
Показать сообщения:    

Текущее время: Сегодня 08:26

Часовой пояс: GMT



Вы не можете начинать темы
Вы не можете отвечать на сообщения
Вы не можете редактировать свои сообщения
Вы не можете удалять свои сообщения
Вы не можете голосовать в опросах
Вы не можете прикреплять файлы к сообщениям
Вы не можете скачивать файлы