300 спартанцев / 300 (Зак Снайдер / Zack Snyder) [2006, США, боевик, фэнтези, военный, комикс, SATRip] [Open Matte] Dub

 
Автор Сообщение

TorrentFilm ®

Пол:

Стаж: 3 года 5 месяцев

Сообщений: 7763



Награды: Нет

Торрент-статистика

Создавать темы 18-Фев-2016 00:08

[Цитировать]

300 спартанцев / 300
Страна: США
Жанр: боевик, фэнтези, военный, комикс
Год выпуска: 2006
Продолжительность: 01:42:03
Перевод: Профессиональный (дублированный)
Cубтитры: нет
Оригинальная аудиодорожка: нет
Режиссер: Зак Снайдер / Zack Snyder
В ролях: Джерард Батлер, Майкл Фассбендер, Винсент Риган, Дэвид Уэнэм, Лина Хиди, Доминик Уэст, Том Уисдом, Эндрю Плевин, Эндрю Тирнан, Родриго Санторо
Описание: События картины повествуют о кровопролитной битве при Фермопилах в 480 году до н. э., в которой триста отважных спартанцев во главе со своим царем Леонидом преградили путь многотысячной армии персидского царя Ксеркса.
Несмотря на численный перевес персов, спартанцы продолжали упорную оборону, проявив мужество и отвагу. Их бесстрашие и героизм вдохновили всю Грецию на объединение против непобедимого врага, переломив тем самым ход Греко-персидских войн…
Доп. информация: Наполнение кадра DVB отличается от BD http://screenshotcomparison.com/comparison/162183/picture:1
Сэмпл: http://multi-up.com/1089377
Качество видео: SATRip
Формат видео: AVI
Видео: MPEG4, XviD, 720x400 (16:9), 25.000 fps, 1 836 Kbps (0.255 bit/pixel)
Аудио: AC-3, 48.0 KHz, 2 ch, 192 Kbps, CBR

MediaInfo

Общее
Полное имя : N:\300 спартанцев.avi
Формат : AVI
Формат/Информация : Audio Video Interleave
Размер файла : 1,45 Гбайт
Продолжительность : 1 ч. 42 м.
Общий поток : 2038 Кбит/сек
Название фильма : 300 спартанцев / 300 (2006)
Программа кодирования : VirtualDubMod 1.5.10.2 (build 2540/release)
Библиотека кодирования : VirtualDubMod build 2540/release
Авторское право : miha2154
Видео
Идентификатор : 0
Формат : MPEG-4 Visual
Профиль формата : Advanced Simple@L5
Параметр BVOP формата : 1
Параметр QPel формата : Нет
Параметр GMC формата : Без точки перехода
Параметр матрицы формата : Выборочная
Идентификатор кодека : XVID
Идентификатор кодека/Подсказка : XviD
Продолжительность : 1 ч. 42 м.
Битрейт : 1836 Кбит/сек
Ширина : 720 пикселей
Высота : 400 пикселей
Соотношение сторон : 16:9
Частота кадров : 25,000 кадров/сек
Цветовое пространство : YUV
Субдискретизация насыщенности : 4:2:0
Битовая глубина : 8 бит
Тип развёртки : Прогрессивная
Метод сжатия : С потерями
Бит/(Пиксели*Кадры) : 0.255
Размер потока : 1,31 Гбайт (90%)
Библиотека кодирования : XviD 65
Аудио
Идентификатор : 1
Формат : AC-3
Формат/Информация : Audio Coding 3
Расширение режима : CM (complete main)
Параметр Endianness формата : Big
Идентификатор кодека : 2000
Продолжительность : 1 ч. 42 м.
Вид битрейта : Постоянный
Битрейт : 192 Кбит/сек
Каналы : 2 канала
Расположение каналов : Front: L R
Частота : 48,0 КГц
Частота кадров : 31,250 кадров/сек (1536 spf)
Метод сжатия : С потерями
Размер потока : 140 Мбайт (9%)
Выравнивание : Разделение по промежуткам
Продолжительность промежутка : 40 мс. (1,00 видеокадр)
Время предзагрузки промежутка : 500 мс.
Заголовок : Профессиональный (полное дублирование)

Скриншоты


[Профиль] [ЛС]
Показать сообщения:    

Текущее время: Сегодня 15:39

Часовой пояс: GMT



Вы не можете начинать темы
Вы не можете отвечать на сообщения
Вы не можете редактировать свои сообщения
Вы не можете удалять свои сообщения
Вы не можете голосовать в опросах
Вы не можете прикреплять файлы к сообщениям
Вы не можете скачивать файлы