300 спартанцев: Расцвет империи / 300: Rise of an Empire (Ноам Мурро / Noam Murro) [2014, США, боевик, драма, военный, BDRip 720p] Dub (CEE) + Ukr (CEE) + VO (Есарев) + Original Eng + Sub Rus, Ukr, Eng

 
Автор Сообщение

Создавать темы 19-Июл-2014 15:15

300 спартанцев: Расцвет империи / 300: Rise of an Empire
«Обрети славу!»- Страна: США
Студия: Warner Bros., Legendary Pictures, Cruel & Unusual Films
Жанр: боевик, драма, военный
Год выпуска: 2014
Продолжительность: 01:42:36-Перевод: Профессиональный (дублированный) BD CEE
Перевод 2: Одноголосый закадровый - Д. Есарев
Cубтитры: Rus (Надписи, Полные), Ukr (Надписи, Полные), Eng (Full, SDH, sup), Fre, Spa, Por.
Оригинальная аудиодорожка: английский-Режиссер: Ноам Мурро / Noam Murro
В ролях: Салливан Степлтон, Лина Хиди, Ева Грин, Дэвид Уэнэм, Каллэн Мулвей, Родриго Санторо, Джек О'Коннелл, Ганс Мэтисон, Кэйтлин Кармайкл, Скотт БернСалливан Степлтон, Лина Хиди, Ева Грин, Дэвид Уэнэм, Каллэн Мулвей, Родриго Санторо, Джек О'Коннелл, Ганс Мэтисон, Кэйтлин Кармайкл, Скотт Берн.
Описание: После победы над царем Леонидом персидская армия во главе с Ксерксом движется на север. На её пути оказывается флот Афин под руководством адмирала Фемистокла. Силы противников не равны, и Фемистокл вынужден вступить в союз с заклятым врагом афинского государства Спартой. Только объединившись у враждующих полисов-государств есть шанс что-то противопоставить могущественному Ксерксу.-Рип от SbR (HDBits internal).
Сэмпл: sendfile→, rusfolder→
Тип релиза: BDRip 720p
Контейнер: MKV
Видео: 1280 x 534 (2.399), x264, crf, L4.1, 23.976 fps, 7091 kbps
Аудио: 48 kHz, DD 5.1 - 448 kbps |Рус. Дубляж, BD CEE|
Аудио 2: 48 kHz, DD 5.1 - 448 kbps |Укр. Дубляж, BD CEE|
Аудио 3: 48 kHz, DTS 5.1 - 1536 kbps |VO, Есарев|
Аудио 4: 48 kHz, DTS 5.1 - 1536 kbps |Оригинал|
  • Отдельно:
    Аудио #: 48 kHz, DD 5.1 - 448 kbps |Рус. Дубляж, BD CEE| скачать →
    Аудио #: 48 kHz, DD 5.1 - 448 kbps |Укр. Дубляж, BD CEE| скачать →

MediaInfo

Полное имя : 300.Rise.Of.An.Empire.2014.720p.BluRay.DTS.x264-SbR.2xRus.Ukr.Eng .mkv
Формат : Matroska
Версия формата : Version 4 / Version 2
Размер файла : 7.90 GiB
Продолжительность : 1h 42mn
Общий поток : 11.0 Mbps
Название фильма : 300: Rise of an Empire (2014) | Rip by SbR | Release for Rutracker | by Djex
Дата кодирования : UTC 2014-06-28 13:11:58
Программа кодирования : mkvmerge v6.5.0 ('Isn't she lovely') built on Oct 20 2013 12:50:05
Библиотека кодирования : libebml v1.3.0 + libmatroska v1.4.1
Video
Идентификатор : 1
Формат : AVC
Формат/Информация : Advanced Video Codec
Профиль формата : High@L4.1
Параметр CABAC формата : Yes
Параметр ReFrames формата : 12 frames
Идентификатор кодека : V_MPEG4/ISO/AVC
Продолжительность : 1h 42mn
Битрейт : 6 886 Kbps
Ширина : 1 280 pixels
Высота : 534 pixels
Соотношение сторон : 2.40:1
Соотношение сторон в оригинале : 2.40:1
Режим частоты кадров : Constant
Частота кадров : 23.976 fps
Цветовое пространство : YUV
Субдискретизация насыщенности : 4:2:0
Битовая глубина : 8 bits
Тип развёртки : Progressive
Бит/(Пиксели*Кадры) : 0.420
Размер потока : 4.94 GiB (62%)
Заголовок : 300: Rise of an Empire (2014) by Djex
Библиотека кодирования : x264 core 142 r2409+42 04be48a tMod [8-bit@all X86_64]
Настройки программы : cabac=1 / ref=12 / deblock=1:-3:-3 / analyse=0x3:0x133 / me=umh / subme=11 / psy=1 / fade_compensate=0.00 / psy_rd=1.10:0.00 / mixed_ref=1 / me_range=48 / chroma_me=1 / trellis=2 / 8x8dct=1 / cqm=0 / deadzone=21,11 / fast_pskip=0 / chroma_qp_offset=-2 / threads=12 / lookahead_threads=3 / sliced_threads=0 / nr=0 / decimate=0 / interlaced=0 / bluray_compat=0 / constrained_intra=0 / fgo=0 / bframes=16 / b_pyramid=2 / b_adapt=2 / b_bias=0 / direct=3 / weightb=1 / open_gop=0 / weightp=2 / keyint=250 / keyint_min=23 / scenecut=40 / intra_refresh=0 / rc=crf / mbtree=0 / crf=17.0000 / qcomp=0.70 / qpmin=0:0:0 / qpmax=69:69:69 / qpstep=4 / ip_ratio=1.30 / pb_ratio=1.20 / aq=1:0.90 / aq-sensitivity=10.00 / aq-factor=1.00:1.00:1.00 / aq2=1:0.70 / aq2-sensitivity=15.00 / aq2-factor=1.00:1.00:1.00 / aq3=0
Язык : English
Default : Yes
Forced : No
Audio #1
Идентификатор : 2
Формат : AC-3
Формат/Информация : Audio Coding 3
Расширение режима : CM (complete main)
Параметр Endianness формата : Big
Идентификатор кодека : A_AC3
Продолжительность : 1h 42mn
Вид битрейта : Constant
Битрейт : 448 Kbps
Каналы : 6 channels
Расположение каналов : Front: L C R, Side: L R, LFE
Частота : 48.0 KHz
Битовая глубина : 16 bits
Метод сжатия : Lossy
Размер потока : 329 MiB (4%)
Заголовок : DD 5.1 - 448 kbps |Дубляж, BD CEE|
Язык : Russian
Default : Yes
Forced : No
Audio #2
Идентификатор : 3
Формат : AC-3
Формат/Информация : Audio Coding 3
Расширение режима : CM (complete main)
Параметр Endianness формата : Big
Идентификатор кодека : A_AC3
Продолжительность : 1h 42mn
Вид битрейта : Constant
Битрейт : 448 Kbps
Каналы : 6 channels
Расположение каналов : Front: L C R, Side: L R, LFE
Частота : 48.0 KHz
Битовая глубина : 16 bits
Метод сжатия : Lossy
Размер потока : 329 MiB (4%)
Заголовок : DD 5.1 - 448 kbps |Дубляж, BD CEE|
Язык : Ukrainian
Default : No
Forced : No
Audio #3
Идентификатор : 4
Формат : DTS
Формат/Информация : Digital Theater Systems
Режим : 16
Параметр Endianness формата : Big
Идентификатор кодека : A_DTS
Продолжительность : 1h 42mn
Вид битрейта : Constant
Битрейт : 1 510 Kbps
Каналы : 6 channels
Расположение каналов : Front: L C R, Side: L R, LFE
Частота : 48.0 KHz
Битовая глубина : 24 bits
Метод сжатия : Lossy
Размер потока : 1.08 GiB (14%)
Заголовок : DTS 5.1 - 1536 kbps |VO, Есарев|
Язык : Russian
Default : No
Forced : No
Audio #4
Идентификатор : 5
Формат : DTS
Формат/Информация : Digital Theater Systems
Режим : 16
Параметр Endianness формата : Big
Идентификатор кодека : A_DTS
Продолжительность : 1h 42mn
Вид битрейта : Constant
Битрейт : 1 509 Kbps
Каналы : 6 channels
Расположение каналов : Front: L C R, Side: L R, LFE
Частота : 48.0 KHz
Битовая глубина : 24 bits
Метод сжатия : Lossy
Размер потока : 1.08 GiB (14%)
Заголовок : DTS 5.1 - 1536 kbps |Оригинал|
Язык : English
Default : No
Forced : No
Text #1
Идентификатор : 6
Формат : UTF-8
Идентификатор кодека : S_TEXT/UTF8
Идентификатор кодека/Информация : UTF-8 Plain Text
Заголовок : Надписи
Язык : Russian
Default : Yes
Forced : No
Text #2
Идентификатор : 7
Формат : UTF-8
Идентификатор кодека : S_TEXT/UTF8
Идентификатор кодека/Информация : UTF-8 Plain Text
Заголовок : Полные
Язык : Russian
Default : No
Forced : No
Text #3
Идентификатор : 8
Формат : UTF-8
Идентификатор кодека : S_TEXT/UTF8
Идентификатор кодека/Информация : UTF-8 Plain Text
Заголовок : Надписи
Язык : Ukrainian
Default : No
Forced : No
Text #4
Идентификатор : 9
Формат : UTF-8
Идентификатор кодека : S_TEXT/UTF8
Идентификатор кодека/Информация : UTF-8 Plain Text
Заголовок : Полные
Язык : Ukrainian
Default : No
Forced : No
Text #5
Идентификатор : 10
Формат : UTF-8
Идентификатор кодека : S_TEXT/UTF8
Идентификатор кодека/Информация : UTF-8 Plain Text
Язык : English
Default : No
Forced : No
Text #6
Идентификатор : 11
Формат : UTF-8
Идентификатор кодека : S_TEXT/UTF8
Идентификатор кодека/Информация : UTF-8 Plain Text
Заголовок : SDH
Язык : English
Default : No
Forced : No
Text #7
Идентификатор : 12
Формат : PGS
Режим смешивания : zlib
Идентификатор кодека : S_HDMV/PGS
Идентификатор кодека/Информация : The same subtitle format used on BDs/HD-DVDs
Заголовок : BD
Язык : English
Default : No
Forced : No
Text #8
Идентификатор : 13
Формат : UTF-8
Идентификатор кодека : S_TEXT/UTF8
Идентификатор кодека/Информация : UTF-8 Plain Text
Язык : French
Default : No
Forced : No
Text #9
Идентификатор : 14
Формат : UTF-8
Идентификатор кодека : S_TEXT/UTF8
Идентификатор кодека/Информация : UTF-8 Plain Text
Язык : Spanish
Default : No
Forced : No
Text #10
Идентификатор : 15
Формат : UTF-8
Идентификатор кодека : S_TEXT/UTF8
Идентификатор кодека/Информация : UTF-8 Plain Text
Язык : Portuguese
Default : No
Forced : No
Menu
00:00:00.000 : en:00:00:00.000
00:10:26.376 : en:00:10:26.376
00:20:54.628 : en:00:20:54.628
00:31:15.290 : en:00:31:15.290
00:40:58.498 : en:00:40:58.498
00:50:50.714 : en:00:50:50.714
01:00:05.435 : en:01:00:05.435
01:09:51.813 : en:01:09:51.813
01:19:51.245 : en:01:19:51.245
01:31:07.295 : en:01:31:07.295
01:33:57.131 : en:01:33:57.131

СкриншотыSource | Encode | BLOW | WEB-DL




Source | Encode











-Торрент перезалит 29.06. Добавлен дубляж c BD и Есарев.
Просьба перекачать торрент.
 
Кто просматривает тему:

Форум Тема Автор Размер
Фильмы 2011 года 300 спартанцев / 300 (Зак Снайдер / Zack Snyder) [2006, США, боевик, фэнтези, военный, комикс, SATRip] [Open Matte] Dub TorrentFilm 1.45 GB
Фильмы 2011 года 300 спартанцев / 300 (Зак Снайдер / Zack Snyder) [2006, США, Фэнтези, боевик, военный, BDRip] Dub TorrentFilm 1.46 GB
Фильмы 2011 года 300 спартанцев / 300 (Зак Снайдер / Zack Snyder) [2007, США, боевик, фэнтези, военный, комикс, BDRip] Dub + Original + subs (Rus, Eng, Eng SDH, Ukr) painkiller 2.18 GB
Фильмы (Дилогии, трилогии и т.д.) 300 спартанцев: Дилогия / 300: Dilogy (2006-2014) BDRip Russian Mafia 4.36 GB
Фильмы (Дилогии, трилогии и т.д.) 300 спартанцев: Дилогия / 300: Dilogy (2006-2014) BDRip 720p от HELLYWOOD | D, P2, A Russian Mafia 15.21 GB
Фильмы (HD Rips | 720p, 1080p) 300 спартанцев: Расцвет империи / 300: Rise of an Empire (2014) BDRip 720p | Лицензия sergej644 2.9 GB
Фильмы 2014 года 300 спартанцев: Расцвет империи / 300: Rise of an Empire (Ноам Мурро / Noam Murro) [2014, США, боевик, драма, WEB-DLRip] Dub bot 745 MB
Фильмы (HD Rips | 720p, 1080p) 300 спартанцев: Расцвет империи / 300: Rise of an Empire (Ноам Мурро / Noam Murro) [2014, США, боевик, драма, военный, BDRemux 1080p] Dub + VO (Есарев) + Sub (Rus, Ukr, Eng) + Original Eng + Ukr bot 28.25 GB
Показать сообщения:    

Текущее время: Сегодня 02:16

Часовой пояс: GMT



Вы не можете начинать темы
Вы не можете отвечать на сообщения
Вы не можете редактировать свои сообщения
Вы не можете удалять свои сообщения
Вы не можете голосовать в опросах
Вы не можете прикреплять файлы к сообщениям
Вы не можете скачивать файлы