300 спартанцев: Расцвет империи / 300: Rise of an Empire (Ноам Мурро / Noam Murro) [2014, США, боевик, драма, WEB-DLRip] Dub

 
Автор Сообщение

Создавать темы 14-Июл-2014 09:08

300 спартанцев: Расцвет империи / 300: Rise of an Empire«Смерти вопреки»- Год выпуска: 2014
Страна: США
Жанр: боевик, драма
Продолжительность: 01:42:46
Перевод: Профессиональный (полное дублирование) iTunes
Субтитры: нет-Режиссер: Ноам Мурро / Noam Murro-В ролях: Салливан Степлтон, Ева Грин, Джек О’Коннелл, Каллэн Мулвей, Ганс Мэтисон, Родриго Санторо, Лина Хиди, Дэвид Уэнэм, Эндрю Тирнан, Эндрю Плевин, Игал Наор, Питер Менса, Бен Тернер, Ашраф Бархом, Кристофер Сиуреф, Стивен Кри, Кэйтлин Кармайкл, Джейд Чайновет, Кевин Фрай, Дэвид Стерн-Описание: После победы над царем Леонидом персидская армия во главе с Ксерксом движется на север. На её пути оказывается флот Афин под руководством адмирала Фемистокла. Силы противников не равны, и Фемистокл вынужден вступить в союз с заклятым врагом афинского государства Спартой. Только объединившись у враждующих полисов-государств есть шанс что-то противопоставить могущественному Ксерксу.- -Сэмпл: http://multi-up.com/977861-Качество: WEB-DLRip [WEB-DL 720p]
Формат: AVI
Видео: 688x288 (2.39:1), 23.976 fps, XviD build 73 ~878 kbps avg, 0.18 bit/pixel
Аудио: 48 kHz, MPEG Layer 3, 2 ch, ~128.00 kbps avg
-

Media Info

Формат                                   : AVI
Формат/Информация                        : Audio Video Interleave
Размер файла                             : 745 Мбайт
Продолжительность                        : 1 ч. 42 м.
Общий поток                              : 1015 Кбит/сек
Программа кодирования                    : VirtualDubMod 1.5.10.3 | www.virtualdub-fr.org || (build 2550/release)
Библиотека кодирования                   : VirtualDubMod build 2550/release
Видео
Идентификатор                            : 0
Формат                                   : MPEG-4 Visual
Профиль формата                          : Advanced Simple@L5
Параметр BVOP формата                    : 1
Параметр QPel формата                    : Нет
Параметр GMC формата                     : Без точки перехода
Параметр матрицы формата                 : Выборочная
Идентификатор кодека                     : XVID
Идентификатор кодека/Подсказка           : XviD
Продолжительность                        : 1 ч. 42 м.
Битрейт                                  : 878 Кбит/сек
Ширина                                   : 688 пикселей
Высота                                   : 288 пикселей
Соотношение сторон                       : 2,40:1
Частота кадров                           : 23,976 кадра/сек
Цветовое пространство                    : YUV
Субдискретизация насыщенности            : 4:2:0
Битовая глубина                          : 8 бит
Тип развёртки                            : Прогрессивная
Метод сжатия                             : С потерями
Бит/(Пиксели*Кадры)                      : 0.185
Размер потока                            : 644 Мбайт (86%)
Библиотека кодирования                   : XviD 73
Аудио
Идентификатор                            : 1
Формат                                   : MPEG Audio
Версия формата                           : Version 1
Профиль формата                          : Layer 3
Идентификатор кодека                     : 55
Идентификатор кодека/Подсказка           : MP3
Продолжительность                        : 1 ч. 42 м.
Вид битрейта                             : Постоянный
Битрейт                                  : 128 Кбит/сек
Каналы                                   : 2 канала
Частота                                  : 48,0 КГц
Метод сжатия                             : С потерями
Размер потока                            : 93,9 Мбайт (13%)
Выравнивание                             : Соединение по промежуткам
Продолжительность промежутка             : 42  мс. (1,00 видеокадр)
Время предзагрузки промежутка            : 504  мс.

Скриншоты

 
Кто просматривает тему:

Форум Тема Автор Размер
Фильмы 2011 года 300 спартанцев / 300 (Зак Снайдер / Zack Snyder) [2006, США, боевик, фэнтези, военный, комикс, SATRip] [Open Matte] Dub TorrentFilm 1.45 GB
Фильмы 2011 года 300 спартанцев / 300 (Зак Снайдер / Zack Snyder) [2006, США, Фэнтези, боевик, военный, BDRip] Dub TorrentFilm 1.46 GB
Фильмы 2011 года 300 спартанцев / 300 (Зак Снайдер / Zack Snyder) [2007, США, боевик, фэнтези, военный, комикс, BDRip] Dub + Original + subs (Rus, Eng, Eng SDH, Ukr) painkiller 2.18 GB
Фильмы (Дилогии, трилогии и т.д.) 300 спартанцев: Дилогия / 300: Dilogy (2006-2014) BDRip Russian Mafia 4.36 GB
Фильмы (Дилогии, трилогии и т.д.) 300 спартанцев: Дилогия / 300: Dilogy (2006-2014) BDRip 720p от HELLYWOOD | D, P2, A Russian Mafia 15.21 GB
Фильмы (HD Rips | 720p, 1080p) 300 спартанцев: Расцвет империи / 300: Rise of an Empire (2014) BDRip 720p | Лицензия sergej644 2.9 GB
Фильмы (HD Rips | 720p, 1080p) 300 спартанцев: Расцвет империи / 300: Rise of an Empire (Ноам Мурро / Noam Murro) [2014, США, боевик, драма, военный, BDRemux 1080p] Dub + VO (Есарев) + Sub (Rus, Ukr, Eng) + Original Eng + Ukr bot 28.25 GB
Фильмы (HD Rips | 720p, 1080p) 300 спартанцев: Расцвет империи / 300: Rise of an Empire (Ноам Мурро / Noam Murro) [2014, США, боевик, драма, военный, BDRip 1080p] Dub + VO (Есарев) + Sub (Rus, Ukr, Eng)+ Original Eng + Ukr bot 13.74 GB
Показать сообщения:    

Текущее время: Сегодня 02:30

Часовой пояс: GMT



Вы не можете начинать темы
Вы не можете отвечать на сообщения
Вы не можете редактировать свои сообщения
Вы не можете удалять свои сообщения
Вы не можете голосовать в опросах
Вы не можете прикреплять файлы к сообщениям
Вы не можете скачивать файлы