300 спартанцев: Расцвет империи / 300: Rise of an Empire (Ноам Мурро / Noam Murro) [2014, США, фэнтези, боевик, драма, военный, BDRip-AVC] Dub + VO (Есарев) + Original + Sub (Rus, Eng)

 
Автор Сообщение

Создавать темы 13-Июл-2014 16:35

300 спартанцев: Расцвет империи / 300: Rise of an Empire
«Смерти вопреки»
- Год выпуска: 2014
Страна: США
Жанр: Фэнтези, боевик, драма, военный-Продолжительность: 1:42:36
Перевод №1: Профессиональный (полное дублирование)
Перевод №2: Одноголосый закадровый [Д. Есарев] {отдельно}
Оригинальная аудиодорожка: Английская
Cубтитры: Русские, английские {*.srt}
Навигация по главам: Присутствует-Режиссер: Ноам Мурро / Noam Murro
В ролях: Салливан Степлтон, Ева Грин, Джек О’Коннелл, Каллэн Мулвей, Ганс Мэтисон, Родриго Санторо, Лина Хиди, Дэвид Уэнэм, Эндрю Тирнан, Эндрю Плевин и др.-Описание: После победы над царем Леонидом персидская армия во главе с Ксерксом движется на юг. На её пути оказывается флот Афин под руководством адмирала Фемистокла. Силы противников не равны, и Фемистокл вынужден вступить в союз с заклятым врагом афинского государства Спартой. Только объединившись у враждующих полисов-государств есть шанс что-то противопоставить могущественному Ксерксу.-Мировая премьера: 5 марта, 2014 г. | Премьера в России: 6 марта, 2014 г.
Бюджет: $110 000 000
Сборы в США: $106 580 051 | Сборы в Мире: + $224 300 000 = $330 880 051 | Сборы в России: $17 626 651
Ограничение по возрасту: 16+
-Качество видео: BDRip-AVC
Исходник: BDRemux 1080p / -Talian-
Формат видео: MKV
Видео: 1152x480 (2.40:1), 23.976 fps, x264 ~4493 kbps avg, 0.331 bit/pixel
Аудио#1: 48 kHz, AC3 Dolby Digital, 3/2 (L,C,R,l,r) + LFE ch, ~448 kbps | Dub BD CEE
Аудио#2: 48 kHz, AC3 Dolby Digital, 3/2 (L,C,R,l,r) + LFE ch, ~448 kbps | Original Eng
Аудио#3: 48 kHz, AC3 Dolby Digital, 3/2 (L,C,R,l,r) + LFE ch, ~448 kbps | VO {отдельно}

Интересные факты

  • Из-за сложных эффектов, которые применялись при создании Ксеркса (3-х метрового гиганта), Родриго Санторо снимался почти во всех своих сценах один в комнате с зеленым экраном и практически не взаимодействовал с остальными актерами. Он сказал, что это было трудно, но для него это было уже знакомо, так как в первом фильме съемки его сцен проходили точно таким же образом.
  • Мэтт Смит мог получить роль в этом фильме, но отказался. В итоге его роль досталась Гансу Мэтисону.
  • Весь мужской актерский состав оригинального фильма «300 спартанцев» (2007) хорошо запомнился ярко выраженными шестью кубиками пресса. Этот внешний вид усердно рекламировался отделом маркетинга. Салливан Степлтон рассказал, что для сиквела ему также пришлось привести себя в соответствующую форму, так как это было необходимым условием.
  • Главную роль в фильме предлагали Джоэлу Эдгертону, но он отказался.
  • В оригинальном сценарии был царь Леонид, но в конечном итоге его вырезали. Это было связано с отказом Джерарда Батлера повторять свою роль из фильма «300 спартанцев» (2007).
  • Первоначально фильм назывался «Ксеркс» по названию комикса Фрэнка Миллера, на котором основан фильм. Позже рабочим названием было «300: Битва при Артемисии». В конечном итоге создатели пришли к названию
  • «300 спартанцев: Расцвет империи», потому что два других сочли слишком экзотическими.
  • Первоначально фильм должен был рассказать историю о Ксерксе, которого в оригинальном фильме сыграл Родриго Санторо, и о его военных походах. Сюжет существенно изменился, и сценарий был несколько раз пересмотрен, чтобы сделать центром истории афинского лидера Фемистокла, которого играет Салливан Степлтон.
  • Зак Снайдер придумал концепцию и написал сценарий вместе с Куртом Джонстадом, с которым они работали над фильмом «300 спартанцев» (2007). Снайдеру также предлагали место режиссера проекта, но он отказался в связи со своей работой над фильмом «Человек из стали» (2013). Позже на место режиссера пригласили Ноама Мурро, но Снайдер при этом остался в числе продюсеров фильма.
  • Первоначально на роль Калисто взяли Джейми Блэкли, но позже заменили его Джеком О`Коннеллом.
  • Для физической подготовки актеров сиквела, как и для оригинального фильма, был нанят Джим Джонс (Gym Jones). Тренировки проходили как до съемок, так и во время съемок, чтобы поддерживать физическую форму. Сам Джим Джонс согласился работать в сиквеле из-за хороших отношений со сценаристом и продюсером фильма Заком Снайдером.
  • На пост режиссера рассматривался Хауме Серра.
  • Первоначально премьера фильма была назначена на 2 августа 2013 года.
  • Хотя большая часть фильма происходит на воде и лодках, съемки проходили только на суше, а вся вода была добавлена позже при помощи компьютерной графики. Режиссер Ноам Мурро сказал, что это дало ему большую свободу действия.
  • Во время съемок Родриго Санторо каждый день по 6 часов наносили макияж. И даже после того как весь макияж был нанесен, он не мог особо двигаться, потому что все ювелирные изделия и пирсинг на нем были очень тонкими и могли сломаться от его активных движений.
  • Салливан Стэплтон в период подготовки к этому фильму снимался в сериале «Ответный удар» (2010). Таким образом, наряду со съемками он каждый день проводил 3-часовые тренировки — 1,5 часа в тренажерном зале и 1,5 часа тренировки с мечом.
  • Салливан Стэплтон сказал, что он был очень скептически настроен к тому, сможет ли он добиться необходимых для его роли шести кубиков пресса. Он думал, что у одних людей они есть от природы, а других нет, и что он из последней группы. Но пройдя курс тренировок и добившись необходимого результата, он сказал, что ему было приятно осознать, что каждый может достигнуть подобного эффекта при надлежащей тренировке.
  • В одном кадре (на 90-й минуте) видно, что у героини Евы Грин надеты колготки «сетка», после смены кадра у неё ноги уже без колготок.
MediaInfoКод:General
Unique ID : 254147130239398236265094182993405808181 (0xBF32F4F38503893DA772292FE1DA0E35)
Complete name : C:\300_spartancev_II.2014.BDRip-tRuAVC\300_spartancev_II.2014.BDRip-tRuAVC.mkv
Format : Matroska
Format version : Version 2
File size : 3.86 GiB
Duration : 1h 42mn
Overall bit rate : 5 391 Kbps
Movie name : 300: Rise of an Empire (2014) - BDRip by Juvelir
Encoded date : UTC 2014-07-06 20:56:56
Writing application : mkvmerge v3.4.0 ('Rapunzel') сборка от May 15 2010 09:38:20
Writing library : libebml v0.8.0 + libmatroska v0.9.0
Attachment : x264 log
Video
ID : 1
Format : AVC
Format/Info : Advanced Video Codec
Format profile : High@L4.0
Format settings, CABAC : Yes
Format settings, ReFrames : 14 frames
Codec ID : V_MPEG4/ISO/AVC
Duration : 1h 42mn
Bit rate : 4 387 Kbps
Width : 1 152 pixels
Height : 480 pixels
Display aspect ratio : 2.40:1
Frame rate mode : Constant
Frame rate : 23.976 fps
Color space : YUV
Chroma subsampling : 4:2:0
Bit depth : 8 bits
Scan type : Progressive
Bits/(Pixel*Frame) : 0.331
Stream size : 3.14 GiB (81%)
Writing library : x264 core 142 r2431kMod ac76440
Encoding settings : cabac=1 / ref=14 / deblock=1:-3:-2 / analyse=0x3:0x133 / me=umh / subme=11 / psy=1 / fade_compensate=0.00 / psy_rd=1.10:0.10 / mixed_ref=1 / me_range=32 / chroma_me=1 / trellis=2 / 8x8dct=1 / cqm=0 / deadzone=21,11 / fast_pskip=0 / chroma_qp_offset=-3 / threads=6 / lookahead_threads=1 / sliced_threads=0 / nr=0 / decimate=1 / interlaced=0 / bluray_compat=0 / constrained_intra=0 / fgo=0 / bframes=13 / b_pyramid=2 / b_adapt=2 / b_bias=0 / direct=3 / weightb=1 / open_gop=0 / weightp=2 / keyint=240 / keyint_min=23 / scenecut=40 / intra_refresh=0 / rc_lookahead=60 / rc=crf / mbtree=0 / crf=17.2000 / qcomp=0.70 / qpmin=0 / qpmax=69 / qpstep=4 / vbv_maxrate=20000 / vbv_bufsize=25000 / crf_max=0.0 / nal_hrd=none / filler=0 / ip_ratio=1.40 / pb_ratio=1.30 / aq=1:0.60
Language : English
Default : Yes
Forced : Yes
Color primaries : BT.709
Transfer characteristics : BT.709
Matrix coefficients : BT.709
Audio #1
ID : 2
Format : AC-3
Format/Info : Audio Coding 3
Mode extension : CM (complete main)
Format settings, Endianness : Big
Codec ID : A_AC3
Duration : 1h 42mn
Bit rate mode : Constant
Bit rate : 448 Kbps
Channel count : 6 channels
Channel positions : Front: L C R, Side: L R, LFE
Sampling rate : 48.0 KHz
Bit depth : 16 bits
Compression mode : Lossy
Stream size : 329 MiB (8%)
Title : Dub
Language : Russian
Default : Yes
Forced : No
Audio #2
ID : 3
Format : AC-3
Format/Info : Audio Coding 3
Mode extension : CM (complete main)
Format settings, Endianness : Big
Codec ID : A_AC3
Duration : 1h 42mn
Bit rate mode : Constant
Bit rate : 448 Kbps
Channel count : 6 channels
Channel positions : Front: L C R, Side: L R, LFE
Sampling rate : 48.0 KHz
Bit depth : 16 bits
Compression mode : Lossy
Stream size : 329 MiB (8%)
Title : Original
Language : English
Default : No
Forced : No
Text #1
ID : 4
Format : UTF-8
Codec ID : S_TEXT/UTF8
Codec ID/Info : UTF-8 Plain Text
Title : Forced
Language : Russian
Default : Yes
Forced : No
Text #2
ID : 5
Format : UTF-8
Codec ID : S_TEXT/UTF8
Codec ID/Info : UTF-8 Plain Text
Title : Full
Language : Russian
Default : No
Forced : No
Text #3
ID : 6
Format : UTF-8
Codec ID : S_TEXT/UTF8
Codec ID/Info : UTF-8 Plain Text
Title : Full
Language : English
Default : No
Forced : No
Text #4
ID : 7
Format : UTF-8
Codec ID : S_TEXT/UTF8
Codec ID/Info : UTF-8 Plain Text
Title : SDH
Language : English
Default : No
Forced : No
Menu
00:00:00.000 : en:00:00:00.000
00:10:26.376 : en:00:10:26.376
00:20:54.628 : en:00:20:54.628
00:31:15.290 : en:00:31:15.290
00:40:58.498 : en:00:40:58.498
00:50:50.714 : en:00:50:50.714
01:00:05.435 : en:01:00:05.435
01:09:51.813 : en:01:09:51.813
01:19:51.245 : en:01:19:51.245
01:31:07.295 : en:01:31:07.295
01:33:57.131 : en:01:33:57.131

Код:General
Complete name : C:\300_spartancev_II.2014.BDRip-tRuAVC\300_spartancev_II.2014.BDRip-tRuAVC.VO.ac3
Format : AC-3
Format/Info : Audio Coding 3
File size : 329 MiB
Duration : 1h 42mn
Overall bit rate mode : Constant
Overall bit rate : 448 Kbps
Audio
Format : AC-3
Format/Info : Audio Coding 3
Mode extension : CM (complete main)
Format settings, Endianness : Big
Duration : 1h 42mn
Bit rate mode : Constant
Bit rate : 448 Kbps
Channel count : 6 channels
Channel positions : Front: L C R, Side: L R, LFE
Sampling rate : 48.0 KHz
Bit depth : 16 bits
Compression mode : Lossy
Stream size : 329 MiB (100%)

x264 logКод:x264 [info]: frame I:960 Avg QP:16.44 size: 85636 PSNR Mean Y:47.43 U:49.92 V:49.92 Avg:48.10 Global:47.50
x264 [info]: frame P:31131 Avg QP:18.27 size: 42964 PSNR Mean Y:45.72 U:48.94 V:48.85 Avg:46.52 Global:45.79
x264 [info]: frame B:115500 Avg QP:20.54 size: 17640 PSNR Mean Y:44.51 U:48.64 V:48.45 Avg:45.44 Global:44.51
x264 [info]: consecutive B-frames: 1.6% 2.2% 6.7% 26.4% 16.1% 30.0% 5.4% 3.9% 2.2% 1.3% 0.7% 0.8% 0.3% 2.4%
x264 [info]: mb I I16..4: 9.2% 70.7% 20.1%
x264 [info]: mb P I16..4: 0.5% 21.2% 2.1% P16..4: 22.9% 27.0% 12.7% 2.4% 0.3% skip:10.8%
x264 [info]: mb B I16..4: 0.0% 2.7% 0.2% B16..8: 33.2% 21.7% 5.1% direct: 9.5% skip:27.6% L0:40.2% L1:40.5% BI:19.4%
x264 [info]: 8x8 transform intra:88.0% inter:56.3%
x264 [info]: direct mvs spatial:100.0% temporal:0.0%
x264 [info]: coded y,uvDC,uvAC intra: 91.0% 87.5% 72.0% inter: 44.0% 27.9% 6.5%
x264 [info]: i16 v,h,dc,p: 37% 12% 12% 39%
x264 [info]: i8 v,h,dc,ddl,ddr,vr,hd,vl,hu: 7% 9% 10% 9% 14% 12% 14% 11% 15%
x264 [info]: i4 v,h,dc,ddl,ddr,vr,hd,vl,hu: 8% 8% 8% 8% 15% 12% 14% 11% 15%
x264 [info]: i8c dc,h,v,p: 48% 19% 14% 19%
x264 [info]: Weighted P-Frames: Y:8.8% UV:4.9%
x264 [info]: ref P L0: 41.1% 13.2% 17.8% 6.4% 5.2% 3.7% 3.5% 2.1% 1.7% 1.2% 1.2% 0.9% 1.0% 0.9% 0.2% 0.0%
x264 [info]: ref B L0: 76.0% 10.7% 4.6% 2.4% 1.6% 1.3% 1.1% 0.7% 0.5% 0.4% 0.3% 0.2% 0.1%
x264 [info]: ref B L1: 93.9% 6.1%
x264 [info]: SSIM Mean Y:0.9791822 (16.816db)
x264 [info]: PSNR Mean Y:44.783 U:48.710 V:48.541 Avg:45.689 Global:44.765 kb/s:4492.92

FAQ по просмотру MKV/h.264/AAC

Сравнения

Source / Juvelir / MediaClub-

 
Кто просматривает тему:

Форум Тема Автор Размер
Фильмы 2011 года 300 спартанцев / 300 (Зак Снайдер / Zack Snyder) [2006, США, боевик, фэнтези, военный, комикс, SATRip] [Open Matte] Dub TorrentFilm 1.45 GB
Фильмы 2011 года 300 спартанцев / 300 (Зак Снайдер / Zack Snyder) [2006, США, Фэнтези, боевик, военный, BDRip] Dub TorrentFilm 1.46 GB
Фильмы 2011 года 300 спартанцев / 300 (Зак Снайдер / Zack Snyder) [2007, США, боевик, фэнтези, военный, комикс, BDRip] Dub + Original + subs (Rus, Eng, Eng SDH, Ukr) painkiller 2.18 GB
Фильмы (Дилогии, трилогии и т.д.) 300 спартанцев: Дилогия / 300: Dilogy (2006-2014) BDRip Russian Mafia 4.36 GB
Фильмы (Дилогии, трилогии и т.д.) 300 спартанцев: Дилогия / 300: Dilogy (2006-2014) BDRip 720p от HELLYWOOD | D, P2, A Russian Mafia 15.21 GB
Фильмы (HD Rips | 720p, 1080p) 300 спартанцев: Расцвет империи / 300: Rise of an Empire (2014) BDRip 720p | Лицензия sergej644 2.9 GB
Фильмы 2014 года 300 спартанцев: Расцвет империи / 300: Rise of an Empire (Ноам Мурро / Noam Murro) [2014, США, боевик, драма, WEB-DLRip] Dub bot 745 MB
Фильмы (HD Rips | 720p, 1080p) 300 спартанцев: Расцвет империи / 300: Rise of an Empire (Ноам Мурро / Noam Murro) [2014, США, боевик, драма, военный, BDRemux 1080p] Dub + VO (Есарев) + Sub (Rus, Ukr, Eng) + Original Eng + Ukr bot 28.25 GB
Показать сообщения:    

Текущее время: Сегодня 22:33

Часовой пояс: GMT



Вы не можете начинать темы
Вы не можете отвечать на сообщения
Вы не можете редактировать свои сообщения
Вы не можете удалять свои сообщения
Вы не можете голосовать в опросах
Вы не можете прикреплять файлы к сообщениям
Вы не можете скачивать файлы