300 спартанцев: Дилогия / 300: Dilogy (2006-2014) BDRip 720p от HELLYWOOD | D, P2, A

 
Автор Сообщение

Russian Mafia ®

Пол:

Стаж: 1 год 8 месяцев

Сообщений: 4257



Награды: 10 (Подробнее)

Mega Seeder 1 (Количество: 1) Mega Seeder 3 (Количество: 1) Mega Seeder 4 (Количество: 1)
Торрент-статистика

Создавать темы 24-Мар-2016 21:01

[Цитировать]

300 спартанцев / 300

Информация о фильме
Название: 300 спартанцев
Оригинальное название: 300
Год выхода: 2006
Жанр: фэнтези, боевик, военный
Режиссер: Зак Снайдер
В ролях: Джерард Батлер, Майкл Фассбендер, Винсент Риган, Дэвид Уэнэм, Лина Хиди, Доминик Уэст, Том Уисдом, Эндрю Плевин, Эндрю Тирнан, Родриго Санторо
О фильме:
События картины повествуют о кровопролитной битве при Фермопилах в 480 году до н. э., в которой триста отважных спартанцев во главе со своим царем Леонидом преградили путь многотысячной армии персидского царя Ксеркса.
Несмотря на численный перевес персов, спартанцы продолжали упорную оборону, проявив мужество и отвагу. Их бесстрашие и героизм вдохновили всю Грецию на объединение против непобедимого врага, переломив тем самым ход Греко-персидских войн…

Страна: США
Студия: Legendary Pictures, Virtual Studios, Warner Bros. Pictures
Продолжительность: 01:56:38
Перевод: Профессиональный (дублированный) Blu-ray CEE + Профессиональный (двухголосый, закадровый) П.Гланц и И.Королёва + Авторский (одноголосый, закадровый) С.Рябов + Профессиональный (многоголосый, закадровый) ICTV
Релиз:
Файл
Формат: Matroska
Видео: 1280x534 at 23.976 fps, MPEG-4 AVC, ~7713 kbps avg
Аудио#1: Russian: 48 kHz, AC3, 3/2 (L,C,R,l,r) + LFE ch, ~448.00 kbps avg |Дубляж, Blu-ray CEE|
Аудио#2: Russian: 48 kHz, AC3, 3/2 (L,C,R,l,r) + LFE ch, ~448.00 kbps avg |Двухголосый закадровый, П.Гланц и И.Королёва|
Аудио#3: Russian: 48 kHz, AC3, 3/2 (L,C,R,l,r) + LFE ch, ~448.00 kbps avg |Авторский, С.Рябов|
Аудио#4: Ukrainian: 48 kHz, AC3, 2/0 (L,R) ch, ~256 kbps avg |Многоголосый закадровый, ICTV|
Аудио#5: English: 48 kHz, AC3, 3/2 (L,C,R,l,r) + LFE ch, ~448.00 kbps avg
Субтитры: Russian, Ukrainian, English

MI

Общее
Уникальный идентификатор : 247380297565540112197969591893881488405 (0xBA1BB6578AD5BB1B9DA23939D5DB8415)
Полное имя : 300.Spartantcev.2006.DUB.DVO.AVO.UKR.ENG.BDRip.720p.-HELLYWOOD.mkv
Формат : Matroska
Версия формата : Version 4 / Version 2
Размер файла : 7,94 Гбайт
Длительность : 1 ч. 56 м.
Общий поток : 9751 Кбит/сек
Название фильма : 300 (2007) - HELLYWOOD
Дата кодирования : UTC 2016-03-15 17:26:50
Программа кодирования : mkvmerge v5.9.0 ('On The Loose') built on Dec 15 2012 16:39:58
Библиотека кодирования : libebml v1.3.0 + libmatroska v1.4.0
Видео
Идентификатор : 1
Формат : AVC
Формат/Информация : Advanced Video Кодек
Профиль формата : High@L4.1
Параметр CABAC формата : Да
Параметр ReFrames формата : 9 кадров
Идентификатор кодека : V_MPEG4/ISO/AVC
Длительность : 1 ч. 56 м.
Битрейт : 7713 Кбит/сек
Ширина : 1280 пикселей
Высота : 534 пикселя
Соотношение сторон : 2,40:1
Режим частоты кадров : Постоянный
Частота кадров : 23,976 кадра/сек
Цветовое пространство : YUV
Субдискретизация насыщенности : 4:2:0
Битовая глубина : 8 бит
Тип развёртки : Прогрессивная
Бит/(Пиксели*Кадры) : 0.471
Размер потока : 6,12 Гбайт (77%)
Заголовок : potroks
Библиотека кодирования : x264 core 146 r2538 121396c
Настройки программы : cabac=1 / ref=9 / deblock=1:-3:-3 / analyse=0x3:0x113 / me=umh / subme=11 / psy=1 / psy_rd=0.92:0.00 / mixed_ref=1 / me_range=48 / chroma_me=1 / trellis=2 / 8x8dct=1 / cqm=0 / deadzone=21,11 / fast_pskip=0 / chroma_qp_offset=-2 / threads=9 / lookahead_threads=2 / sliced_threads=0 / nr=0 / decimate=0 / interlaced=0 / bluray_compat=0 / constrained_intra=0 / bframes=10 / b_pyramid=2 / b_adapt=2 / b_bias=0 / direct=3 / weightb=1 / open_gop=0 / weightp=2 / keyint=240 / keyint_min=23 / scenecut=40 / intra_refresh=0 / rc_lookahead=60 / rc=2pass / mbtree=0 / bitrate=7713 / ratetol=1.0 / qcomp=0.70 / qpmin=0 / qpmax=69 / qpstep=4 / cplxblur=20.0 / qblur=0.5 / vbv_maxrate=14000 / vbv_bufsize=14000 / nal_hrd=none / filler=0 / ip_ratio=1.35 / pb_ratio=1.25 / aq=1:0.90
Язык : English
Default : Да
Forced : Нет
Аудио #1
Идентификатор : 2
Формат : AC-3
Формат/Информация : Audio Coding 3
Расширение режима : CM (complete main)
Параметр Endianness формата : Big
Идентификатор кодека : A_AC3
Длительность : 1 ч. 56 м.
Вид битрейта : Постоянный
Битрейт : 448 Кбит/сек
Каналы : 6 каналов
Расположение каналов : Front: L C R, Side: L R, LFE
Частота : 48,0 КГц
Метод сжатия : С потерями
Размер потока : 374 Мбайт (5%)
Заголовок : Dub | DD 5.1 @ 448 kbps - Blu-Ray CEE
Язык : Russian
Default : Да
Forced : Нет
Аудио #2
Идентификатор : 3
Формат : AC-3
Формат/Информация : Audio Coding 3
Расширение режима : CM (complete main)
Параметр Endianness формата : Big
Идентификатор кодека : A_AC3
Длительность : 1 ч. 56 м.
Вид битрейта : Постоянный
Битрейт : 448 Кбит/сек
Каналы : 6 каналов
Расположение каналов : Front: L C R, Side: L R, LFE
Частота : 48,0 КГц
Метод сжатия : С потерями
Размер потока : 374 Мбайт (5%)
Заголовок : DVO | DD 5.1 @ 448 kbps - P.Glants and I.Koroleva
Язык : Russian
Default : Нет
Forced : Нет
Аудио #3
Идентификатор : 4
Формат : AC-3
Формат/Информация : Audio Coding 3
Расширение режима : CM (complete main)
Параметр Endianness формата : Big
Идентификатор кодека : A_AC3
Длительность : 1 ч. 56 м.
Вид битрейта : Постоянный
Битрейт : 448 Кбит/сек
Каналы : 6 каналов
Расположение каналов : Front: L C R, Side: L R, LFE
Частота : 48,0 КГц
Метод сжатия : С потерями
Размер потока : 374 Мбайт (5%)
Заголовок : AVO | DD 5.1 @ 448 kbps - S.Ryabov
Язык : Russian
Default : Нет
Forced : Нет
Аудио #4
Идентификатор : 5
Формат : AC-3
Формат/Информация : Audio Coding 3
Расширение режима : CM (complete main)
Параметр Endianness формата : Big
Идентификатор кодека : A_AC3
Длительность : 1 ч. 56 м.
Вид битрейта : Постоянный
Битрейт : 256 Кбит/сек
Каналы : 2 канала
Расположение каналов : Front: L R
Частота : 48,0 КГц
Метод сжатия : С потерями
Размер потока : 214 Мбайт (3%)
Заголовок : MVO | DD 2.0 @ 256 kbps - 1+1
Язык : Ukrainian
Default : Нет
Forced : Нет
Аудио #5
Идентификатор : 6
Формат : AC-3
Формат/Информация : Audio Coding 3
Расширение режима : CM (complete main)
Параметр Endianness формата : Big
Идентификатор кодека : A_AC3
Длительность : 1 ч. 56 м.
Вид битрейта : Постоянный
Битрейт : 448 Кбит/сек
Каналы : 6 каналов
Расположение каналов : Front: L C R, Side: L R, LFE
Частота : 48,0 КГц
Метод сжатия : С потерями
Размер потока : 374 Мбайт (5%)
Заголовок : Original | DD 5.1 @ 448 kbps
Язык : English
Default : Нет
Forced : Нет
Текст #1
Идентификатор : 7
Формат : UTF-8
Идентификатор кодека : S_TEXT/UTF8
Идентификатор кодека/Информация : UTF-8 Plain Text
Язык : Russian
Default : Нет
Forced : Нет
Текст #2
Идентификатор : 8
Формат : UTF-8
Идентификатор кодека : S_TEXT/UTF8
Идентификатор кодека/Информация : UTF-8 Plain Text
Язык : Ukrainian
Default : Нет
Forced : Нет
Текст #3
Идентификатор : 9
Формат : UTF-8
Идентификатор кодека : S_TEXT/UTF8
Идентификатор кодека/Информация : UTF-8 Plain Text
Заголовок : Full
Язык : English
Default : Нет
Forced : Нет
Текст #4
Идентификатор : 10
Формат : UTF-8
Идентификатор кодека : S_TEXT/UTF8
Идентификатор кодека/Информация : UTF-8 Plain Text
Заголовок : SDH
Язык : English
Default : Нет
Forced : Нет
Меню
00:00:00.000 : en:01. Spartan Education
00:05:16.983 : en:02. Messenger From Persia
00:10:23.289 : en:03. Sparta's Reply
00:13:16.796 : en:04. The Ephors
00:16:52.177 : en:05. The Oracle
00:19:44.349 : en:06. What Should a Free Man Do?
00:22:28.347 : en:07. With or on Your Shield
00:27:03.621 : en:08. More Soldiers Than You
00:29:16.254 : en:09. Hunters of Men's Souls
00:33:17.829 : en:10. Glorious Rain
00:35:06.771 : en:11. Fraction of the Monster
00:37:49.433 : en:12. Wall of the Dead
00:40:46.277 : en:13. Ephialtes' Request
00:44:10.314 : en:14. Hot Gates Battle
00:49:17.287 : en:15. Today No Spartan Dies
00:52:46.329 : en:16. Make Theron Your Ally
00:55:33.663 : en:17. Meeting Xerxes
01:01:40.863 : en:18. Immortals Put to the Test
01:05:20.750 : en:19. Uber Immortal's Fall
01:08:42.952 : en:20. Numbers Count for Nothing
01:12:43.192 : en:21. Blood-Drunk
01:15:50.379 : en:22. Betrayer's Bargain
01:18:38.380 : en:23. Queen's Bargain
01:22:20.936 : en:24. Prepare for Glory
01:26:43.531 : en:25. Tell Them Our Story
01:29:11.512 : en:26. Trickster in True Form
01:33:59.216 : en:27. Victory in Surrender
01:38:54.595 : en:28. Fallen Heroes
01:43:26.200 : en:29. Go Tell the Spartans
01:49:03.537 : en:30. End Credits

300 спартанцев: Расцвет империи / 300: Rise of an Empire

Информация о фильме
Название: 300 спартанцев: Расцвет империи
Оригинальное название: 300: Rise of an Empire
Год выхода: 2014
Жанр: фэнтези, боевик, драма, военный
Режиссер: Ноам Мурро
В ролях: Салливан Степлтон, Ева Грин, Джек О’Коннелл, Каллэн Мулвей, Ганс Мэтисон, Родриго Санторо, Лина Хиди, Дэвид Уэнэм, Эндрю Тирнан, Эндрю Плевин
О фильме:
После победы над царем Леонидом персидская армия во главе с Ксерксом движется на юг. На её пути оказывается флот Афин под руководством адмирала Фемистокла. Силы противников не равны, и Фемистокл вынужден вступить в союз с заклятым врагом афинского государства Спартой. Только объединившись у враждующих полисов-государств есть шанс что-то противопоставить могущественному Ксерксу.

Страна: США
Студия: Legendary Pictures, Nimar Studios Ltd., Warner Bros. Pictures
Продолжительность: 01:42:36
Перевод: Профессиональный (дублированный) Blu-ray CEE + Авторский (одноголосый, закадровый) А.Гаврилов + Авторский (одноголосый, закадровый) Д.Есарев
Релиз:
Файл
Формат: Matroska
Видео: 1280x534 at 23.976 fps, MPEG-4 AVC, ~7514 kbps avg
Аудио#1: Russian: 48 kHz, AC3, 3/2 (L,C,R,l,r) + LFE ch, ~448.00 kbps avg |Дубляж, Blu-ray CEE|
Аудио#2: Russian: 48 kHz, AC3, 3/2 (L,C,R,l,r) + LFE ch, ~448.00 kbps avg |Авторский, А.Гаврилов|
Аудио#3: Russian: 48 kHz, AC3, 3/2 (L,C,R,l,r) + LFE ch, ~640.00 kbps avg |Авторский, Д.Есарев|
Аудио#4: Ukrainian: 48 kHz, AC3, 3/2 (L,C,R,l,r) + LFE ch, ~448.00 kbps avg |Дубляж, Blu-ray CEE|
Аудио#5: English: 48 kHz, AC3, 3/2 (L,C,R,l,r) + LFE ch, ~640.00 kbps avg
Субтитры: Russian, Ukrainian, English

MI

Общее
Уникальный идентификатор : 189535253903115246907454934372957636665 (0x8E97297F71E47FD9B417C1D9C84D4839)
Полное имя : 300.Spartantcev.Rasvet.Imperii.2014.DUB.AVO.UKR.ENG.BDRip.720p.-HELLYWOOD.mkv
Формат : Matroska
Версия формата : Version 4 / Version 2
Размер файла : 7,26 Гбайт
Длительность : 1 ч. 42 м.
Общий поток : 10,1 Мбит/сек
Название фильма : 300: Rise of an Empire (2014) - HELLYWOOD
Дата кодирования : UTC 2016-03-07 16:44:53
Программа кодирования : mkvmerge v5.9.0 ('On The Loose') built on Dec 15 2012 16:39:58
Библиотека кодирования : libebml v1.3.0 + libmatroska v1.4.0
Видео
Идентификатор : 1
Формат : AVC
Формат/Информация : Advanced Video Кодек
Профиль формата : High@L4.1
Параметр CABAC формата : Да
Параметр ReFrames формата : 9 кадров
Идентификатор кодека : V_MPEG4/ISO/AVC
Длительность : 1 ч. 42 м.
Битрейт : 7514 Кбит/сек
Ширина : 1280 пикселей
Высота : 534 пикселя
Соотношение сторон : 2,40:1
Режим частоты кадров : Постоянный
Частота кадров : 23,976 кадра/сек
Цветовое пространство : YUV
Субдискретизация насыщенности : 4:2:0
Битовая глубина : 8 бит
Тип развёртки : Прогрессивная
Бит/(Пиксели*Кадры) : 0.459
Размер потока : 5,24 Гбайт (72%)
Заголовок : potroks
Библиотека кодирования : x264 core 130 r2273 b3065e6
Настройки программы : cabac=1 / ref=9 / deblock=1:-3:-3 / analyse=0x3:0x133 / me=umh / subme=11 / psy=1 / psy_rd=1.00:0.03 / mixed_ref=1 / me_range=48 / chroma_me=1 / trellis=2 / 8x8dct=1 / cqm=0 / deadzone=21,11 / fast_pskip=0 / chroma_qp_offset=-3 / threads=9 / lookahead_threads=6 / sliced_threads=0 / nr=0 / decimate=0 / interlaced=0 / bluray_compat=0 / constrained_intra=0 / bframes=8 / b_pyramid=2 / b_adapt=2 / b_bias=0 / direct=3 / weightb=1 / open_gop=0 / weightp=2 / keyint=250 / keyint_min=23 / scenecut=40 / intra_refresh=0 / rc_lookahead=60 / rc=2pass / mbtree=0 / bitrate=7514 / ratetol=1.0 / qcomp=0.70 / qpmin=0 / qpmax=69 / qpstep=4 / cplxblur=20.0 / qblur=0.5 / vbv_maxrate=50000 / vbv_bufsize=62500 / nal_hrd=none / ip_ratio=1.35 / pb_ratio=1.25 / aq=1:0.70
Язык : English
Default : Да
Forced : Нет
Аудио #1
Идентификатор : 2
Формат : AC-3
Формат/Информация : Audio Coding 3
Расширение режима : CM (complete main)
Параметр Endianness формата : Big
Идентификатор кодека : A_AC3
Длительность : 1 ч. 42 м.
Вид битрейта : Постоянный
Битрейт : 448 Кбит/сек
Каналы : 6 каналов
Расположение каналов : Front: L C R, Side: L R, LFE
Частота : 48,0 КГц
Метод сжатия : С потерями
Размер потока : 329 Мбайт (4%)
Заголовок : Dub | DD 5.1 @ 448 kbps - Blu-Ray CEE
Язык : Russian
Default : Да
Forced : Нет
Аудио #2
Идентификатор : 3
Формат : AC-3
Формат/Информация : Audio Coding 3
Расширение режима : CM (complete main)
Параметр Endianness формата : Big
Идентификатор кодека : A_AC3
Длительность : 1 ч. 42 м.
Вид битрейта : Постоянный
Битрейт : 448 Кбит/сек
Каналы : 6 каналов
Расположение каналов : Front: L C R, Side: L R, LFE
Частота : 48,0 КГц
Метод сжатия : С потерями
Размер потока : 329 Мбайт (4%)
Заголовок : AVO | DD 5.1 @ 448 kbps - A.Gavrilov
Язык : Russian
Default : Нет
Forced : Нет
Аудио #3
Идентификатор : 4
Формат : AC-3
Формат/Информация : Audio Coding 3
Расширение режима : CM (complete main)
Параметр Endianness формата : Big
Идентификатор кодека : A_AC3
Длительность : 1 ч. 42 м.
Вид битрейта : Постоянный
Битрейт : 640 Кбит/сек
Каналы : 6 каналов
Расположение каналов : Front: L C R, Side: L R, LFE
Частота : 48,0 КГц
Метод сжатия : С потерями
Размер потока : 470 Мбайт (6%)
Заголовок : AVO | DD 5.1 @ 640 kbps - D.Yesarev
Язык : Russian
Default : Нет
Forced : Нет
Аудио #4
Идентификатор : 5
Формат : AC-3
Формат/Информация : Audio Coding 3
Расширение режима : CM (complete main)
Параметр Endianness формата : Big
Идентификатор кодека : A_AC3
Длительность : 1 ч. 42 м.
Вид битрейта : Постоянный
Битрейт : 448 Кбит/сек
Каналы : 6 каналов
Расположение каналов : Front: L C R, Side: L R, LFE
Частота : 48,0 КГц
Метод сжатия : С потерями
Размер потока : 329 Мбайт (4%)
Заголовок : Dub | DD 5.1 @ 448 kbps - Blu-Ray CEE
Язык : Ukrainian
Default : Нет
Forced : Нет
Аудио #5
Идентификатор : 6
Формат : AC-3
Формат/Информация : Audio Coding 3
Расширение режима : CM (complete main)
Параметр Endianness формата : Big
Идентификатор кодека : A_AC3
Длительность : 1 ч. 42 м.
Вид битрейта : Постоянный
Битрейт : 640 Кбит/сек
Каналы : 6 каналов
Расположение каналов : Front: L C R, Side: L R, LFE
Частота : 48,0 КГц
Метод сжатия : С потерями
Размер потока : 470 Мбайт (6%)
Заголовок : Original | DD 5.1 @ 640 kbps
Язык : English
Default : Нет
Forced : Нет
Текст #1
Идентификатор : 7
Формат : UTF-8
Идентификатор кодека : S_TEXT/UTF8
Идентификатор кодека/Информация : UTF-8 Plain Text
Заголовок : Forced
Язык : Russian
Default : Да
Forced : Нет
Текст #2
Идентификатор : 8
Формат : UTF-8
Идентификатор кодека : S_TEXT/UTF8
Идентификатор кодека/Информация : UTF-8 Plain Text
Заголовок : Blu-Ray
Язык : Russian
Default : Нет
Forced : Нет
Текст #3
Идентификатор : 9
Формат : UTF-8
Идентификатор кодека : S_TEXT/UTF8
Идентификатор кодека/Информация : UTF-8 Plain Text
Заголовок : Forced
Язык : Ukrainian
Default : Нет
Forced : Нет
Текст #4
Идентификатор : 10
Формат : UTF-8
Идентификатор кодека : S_TEXT/UTF8
Идентификатор кодека/Информация : UTF-8 Plain Text
Заголовок : Blu-Ray
Язык : Ukrainian
Default : Нет
Forced : Нет
Текст #5
Идентификатор : 11
Формат : UTF-8
Идентификатор кодека : S_TEXT/UTF8
Идентификатор кодека/Информация : UTF-8 Plain Text
Заголовок : Full
Язык : English
Default : Нет
Forced : Нет
Текст #6
Идентификатор : 12
Формат : UTF-8
Идентификатор кодека : S_TEXT/UTF8
Идентификатор кодека/Информация : UTF-8 Plain Text
Заголовок : SDH
Язык : English
Default : Нет
Forced : Нет
Текст #7
Идентификатор : 13
Формат : UTF-8
Идентификатор кодека : S_TEXT/UTF8
Идентификатор кодека/Информация : UTF-8 Plain Text
Заголовок : SDH-Colored
Язык : English
Default : Нет
Forced : Нет
Меню
00:00:00.000 : en:Chapter 01
00:10:26.376 : en:Chapter 02
00:20:54.628 : en:Chapter 03
00:31:15.290 : en:Chapter 04
00:40:58.498 : en:Chapter 05
00:50:50.714 : en:Chapter 06
01:00:05.435 : en:Chapter 07
01:09:51.813 : en:Chapter 08
01:19:51.245 : en:Chapter 09
01:31:07.295 : en:Chapter 10
01:33:57.131 : en:Chapter 11

Скриншоты


[Профиль] [ЛС]
Кто просматривает тему:

Форум Тема Автор Размер
Фильмы 2011 года 300 спартанцев / 300 (Зак Снайдер / Zack Snyder) [2006, США, боевик, фэнтези, военный, комикс, SATRip] [Open Matte] Dub TorrentFilm 1.45 GB
Фильмы 2011 года 300 спартанцев / 300 (Зак Снайдер / Zack Snyder) [2006, США, Фэнтези, боевик, военный, BDRip] Dub TorrentFilm 1.46 GB
Фильмы 2011 года 300 спартанцев / 300 (Зак Снайдер / Zack Snyder) [2007, США, боевик, фэнтези, военный, комикс, BDRip] Dub + Original + subs (Rus, Eng, Eng SDH, Ukr) painkiller 2.18 GB
Фильмы (Дилогии, трилогии и т.д.) 300 спартанцев: Дилогия / 300: Dilogy (2006-2014) BDRip Russian Mafia 4.36 GB
Фильмы (HD Rips | 720p, 1080p) 300 спартанцев: Расцвет империи / 300: Rise of an Empire (2014) BDRip 720p | Лицензия sergej644 2.9 GB
Фильмы 2014 года 300 спартанцев: Расцвет империи / 300: Rise of an Empire (Ноам Мурро / Noam Murro) [2014, США, боевик, драма, WEB-DLRip] Dub bot 745 MB
Фильмы (HD Rips | 720p, 1080p) 300 спартанцев: Расцвет империи / 300: Rise of an Empire (Ноам Мурро / Noam Murro) [2014, США, боевик, драма, военный, BDRemux 1080p] Dub + VO (Есарев) + Sub (Rus, Ukr, Eng) + Original Eng + Ukr bot 28.25 GB
Фильмы (HD Rips | 720p, 1080p) 300 спартанцев: Расцвет империи / 300: Rise of an Empire (Ноам Мурро / Noam Murro) [2014, США, боевик, драма, военный, BDRip 1080p] Dub + VO (Есарев) + Sub (Rus, Ukr, Eng)+ Original Eng + Ukr bot 13.74 GB
Показать сообщения:    

Текущее время: Сегодня 18:45

Часовой пояс: GMT



Вы не можете начинать темы
Вы не можете отвечать на сообщения
Вы не можете редактировать свои сообщения
Вы не можете удалять свои сообщения
Вы не можете голосовать в опросах
Вы не можете прикреплять файлы к сообщениям
Вы не можете скачивать файлы