30 свиданий (Татьяна Капитан) [2016, Россия, комедия, мелодрама, WEB-DL 720p]

 
Автор Сообщение

TorrentFilm ®

Пол:

Стаж: 2 года

Сообщений: 7741



Награды: Нет

Торрент-статистика

Создавать темы 24-Мар-2016 00:09

[Цитировать]

30 свиданий
Страна: Россия
Студия: ПЦ «Кинематограф»
Жанр: комедия, мелодрама
Год выпуска: 2016
Продолжительность: 01:28:36
Перевод: Не требуется
Cубтитры: нет--Режиссер: Татьяна Капитан--В ролях: Наталия Медведева, Никита Панфилов, Дмитрий Богдан, Сергей Аброскин, Ирина Гринёва, Данила Якушев, Гарик Харламов, Никита Джигурда, Сергей Баталов, Ольга Тумайкина...--Описание: На что только не пойдешь, чтобы обрести счастье?! Невезучая Даша верит в найденный в интернете способ — в течение месяца сходить на 30 свиданий, а затем мужчина твоей мечты сам найдет тебя. Только остаться бы живой после встреч с самыми безумными кавалерами и пробовать разглядеть среди них того самого.--Доп. информация: | КиноПоиск | Сэмпл |--Тип релиза: WEB-DL 720p
Контейнер: MKV
Видео: AVC, 1280@960x536, 25.000 fps, 4016 kbps avg
Аудио: AC3, 3/2 (L,C,R,l,r) + LFE ch, 48 kHz, 384 kbps avg

MediaInfo

General
Unique ID : 177718326071633046591814758909927379116 (0x85B34DF9448821C8B2FB2E17CD6A50AC)
Complete name : 30 свиданий.mkv
Format : Matroska
Format version : Version 4 / Version 2
File size : 2.78 GiB
Duration : 1h 28mn
Overall bit rate : 4 489 Kbps
Movie name : 30 свиданий
Encoded date : UTC 2016-03-23 17:41:39
Writing application : mkvmerge v8.1.0 ('Psychedelic Postcard') 64bit
Writing library : libebml v1.3.1 + libmatroska v1.4.2
Cover : Yes
Attachments : cover.jpg
Video
ID : 1
Format : AVC
Format/Info : Advanced Video Codec
Format profile : Main@L3.1
Format settings, CABAC : No
Format settings, ReFrames : 2 frames
Codec ID : V_MPEG4/ISO/AVC
Duration : 1h 28mn
Bit rate : 4 103 Kbps
Width : 960 pixels
Height : 536 pixels
Display aspect ratio : 2.40:1
Frame rate mode : Constant
Frame rate : 25.000 fps
Color space : YUV
Chroma subsampling : 4:2:0
Bit depth : 8 bits
Scan type : Progressive
Bits/(Pixel*Frame) : 0.319
Stream size : 2.54 GiB (91%)
Title : 30 свиданий
Language : Russian
Default : Yes
Forced : No
Color range : Limited
Color primaries : BT.709
Transfer characteristics : BT.709
Matrix coefficients : BT.709
Audio
ID : 2
Format : AC-3
Format/Info : Audio Coding 3
Mode extension : CM (complete main)
Format settings, Endianness : Big
Codec ID : A_AC3
Duration : 1h 28mn
Bit rate mode : Constant
Bit rate : 384 Kbps
Channel(s) : 6 channels
Channel positions : Front: L C R, Side: L R, LFE
Sampling rate : 48.0 KHz
Frame rate : 31.250 fps (1536 spf)
Compression mode : Lossy
Stream size : 243 MiB (9%)
Language : Russian
Default : Yes
Forced : No
Menu
00:00:00.000 : en:1
00:05:35.560 : en:2
00:11:09.520 : en:3
00:16:57.000 : en:4
00:22:31.920 : en:5
00:27:50.160 : en:6
00:34:34.160 : en:7
00:39:41.080 : en:8
00:45:15.800 : en:9
00:50:44.960 : en:10
00:56:05.360 : en:11
01:01:24.000 : en:12
01:07:53.480 : en:13
01:13:09.400 : en:14
01:18:43.800 : en:15

Скриншоты

[Профиль] [ЛС]
Кто просматривает тему:

Показать сообщения:    

Текущее время: Сегодня 04:20

Часовой пояс: GMT



Вы не можете начинать темы
Вы не можете отвечать на сообщения
Вы не можете редактировать свои сообщения
Вы не можете удалять свои сообщения
Вы не можете голосовать в опросах
Вы не можете прикреплять файлы к сообщениям
Вы не можете скачивать файлы