30 свиданий (2015) WEB-DL 720p | iTunes

 
Автор Сообщение

достали все ®

Пол:

Стаж: 1 год 8 месяцев

Сообщений: 6600



Награды: 12 (Подробнее)

Mega Releaser 3 (Количество: 1) Top Releaser 2 (Количество: 1) Mega Seeder 4 (Количество: 1)
Торрент-статистика

Создавать темы 25-Фев-2016 07:24

[Цитировать]

Информация о фильме
Название: 30 свиданий
Оригинальное название: 30 свиданий
Год выхода: 2015
Жанр: комедия, мелодрама
Режиссер: Татьяна Капитан
В ролях: Наталия Медведева, Никита Панфилов, Дмитрий Богдан, Сергей Аброскин, Ирина Гринёва, Данила Якушев, Гарик Харламов, Никита Джигурда, Сергей Баталов, Ольга Тумайкина
О фильме: На что только не пойдешь, чтобы обрести счастье?! Невезучая Даша верит в найденный в интернете способ — в течение месяца сходить на 30 свиданий, а затем мужчина твоей мечты сам найдет тебя. Только остаться бы живой после встреч с самыми безумными кавалерами и пробовать разглядеть среди них того самого.

Выпущено: Россия
Продолжительность: 01:28:36
Озвучивание: Оригинал [iTunes]
Файл
Формат: MKV
Качество: WEB-DL 720p
Видео: MPEG-4 AVC, 4016 kb/s, 1280@960x536
Аудио: AC3, 384 kb/s (6 ch)

MI

Format : Matroska
Format version : Version 4 / Version 2
File size : 2.78 GiB
Duration : 1h 28mn
Overall bit rate : 4 489 Kbps
Encoded date : UTC 2016-02-24 19:11:55
Writing application : mkvmerge v8.3.0 ('Over the Horizon') 64bit
Writing library : libebml v1.3.1 + libmatroska v1.4.2
DURATION : 01:28:36.320000000
NUMBER_OF_FRAMES : 166135
NUMBER_OF_BYTES : 255183360
_STATISTICS_WRITING_APP : mkvmerge v8.3.0 ('Over the Horizon') 64bit
_STATISTICS_WRITING_DATE_UTC : 2016-02-24 19:11:55
_STATISTICS_TAGS : BPS DURATION NUMBER_OF_FRAMES NUMBER_OF_BYTES
Video
ID : 1
Format : AVC
Format/Info : Advanced Video Codec
Format profile : Main@L3.1
Format settings, CABAC : No
Format settings, ReFrames : 2 frames
Codec ID : V_MPEG4/ISO/AVC
Duration : 1h 28mn
Bit rate : 4 016 Kbps
Width : 960 pixels
Height : 536 pixels
Display aspect ratio : 2.40:1
Frame rate mode : Constant
Frame rate : 25.000 fps
Color space : YUV
Chroma subsampling : 4:2:0
Bit depth : 8 bits
Scan type : Progressive
Bits/(Pixel*Frame) : 0.312
Stream size : 2.49 GiB (89%)
Language : English
Default : Yes
Forced : No
Color range : Limited
Color primaries : BT.709
Transfer characteristics : BT.709
Matrix coefficients : BT.709
Audio
ID : 2
Format : AC-3
Format/Info : Audio Coding 3
Mode extension : CM (complete main)
Format settings, Endianness : Big
Codec ID : A_AC3
Duration : 1h 28mn
Bit rate mode : Constant
Bit rate : 384 Kbps
Channel(s) : 6 channels
Channel positions : Front: L C R, Side: L R, LFE
Sampling rate : 48.0 KHz
Bit depth : 16 bits
Compression mode : Lossy
Stream size : 243 MiB (9%)
Language : Russian
Default : Yes
Forced : No
Menu
00:00:00.000 : en:Глава 1
00:05:35.560 : en:Глава 2
00:11:09.520 : en:Глава 3
00:16:57.000 : en:Глава 4
00:22:31.920 : en:Глава 5
00:27:50.160 : en:Глава 6
00:34:34.160 : en:Глава 7
00:39:41.080 : en:Глава 8
00:45:15.800 : en:Глава 9
00:50:44.960 : en:Глава 10
00:56:05.360 : en:Глава 11
01:01:24.000 : en:Глава 12
01:07:53.480 : en:Глава 13
01:13:09.400 : en:Глава 14
01:18:43.800 : en:Глава 15

Скриншоты




[Профиль] [ЛС]
Кто просматривает тему:

Показать сообщения:    

Текущее время: Сегодня 15:45

Часовой пояс: GMT



Вы не можете начинать темы
Вы не можете отвечать на сообщения
Вы не можете редактировать свои сообщения
Вы не можете удалять свои сообщения
Вы не можете голосовать в опросах
Вы не можете прикреплять файлы к сообщениям
Вы не можете скачивать файлы