3 дня на убийство / 3 Days to Kill (2014) BDRip 1080p

 
Автор Сообщение

sergej644 ®

Пол:

Стаж: 4 года 11 месяцев

Сообщений: 6046

Откуда: Soviet Union



Награды: Нет

Торрент-статистика

Создавать темы 24-Янв-2015 00:01

[Цитировать]

Название: 3 дня на убийство
Оригинальное название: 3 Days to Kill
Год выпуска: 2014
Жанр: Боевик, триллер, драма, криминал, комедия
Выпущено: CША, 3DTK, EuropaCorp, Feelgood Entertainment, Paradise MGN, Relativity Media, Wonderland Sound and Vision
Режиссер: МакДжи
В ролях: Кевин Костнер, Эмбер Хёрд, Хейли Стайнфелд, Конни Нильсен, Томас Лемаркус, Рихард Заммель, Марк Андреони, Бруно Риччи, Йонас Блоке, Эрик Эбони
Перевод: Дублированный
Сюжет фильма
В секретной лаборатории ученые разработали препарат, который позволяет человеку справиться с любой неизлечимой болезнью. Руководство спецслужб предлагает принять это лекарство экс-агенту спецслужб Итану Раннеру, которому врачи объявили смертельный диагноз. Но он должен выполнить еще одно задание, которое, впрочем, может стоить ему жизни. Теперь вокруг Раннера начинают происходить странные вещи. Что это – галлюцинации, побочный эффект от таблеток или мир действительно полон ужаса и кошмара?

Файл
Качество: BDRip 1080p (исходник Blu-ray Remux)
Видео: 1920x804, 8 865 Кбит/сек, 24.000 кадр/сек, AVC, x264, High@L4.1, 0.239 Бит/[Пиксели*Кадры], 2pass
Аудио 1: AC3 5.1 48 kHz 640 kbps - Дублированный
Чаптеры: есть
Продолжительность: 01:56:52

Скриншоты

MediaInfo

Format : Matroska
Format version : Version 2
File size : 7.76 GiB
Duration : 1h 56mn
Overall bit rate : 9 503 Kbps
Movie name : 3 dnja na ubijstvo.(2014).BDRip.1080p.[denis100]
Encoded date : UTC 2014-07-26 06:33:18
Writing application : mkvmerge v5.8.0 ('No Sleep / Pillow') built on Sep 2 2012 15:37:04
Writing library : libebml v1.2.3 + libmatroska v1.3.0
Video
ID : 1
Format : AVC
Format/Info : Advanced Video Codec
Format profile : High@L4.1
Format settings, CABAC : Yes
Format settings, ReFrames : 5 frames
Codec ID : V_MPEG4/ISO/AVC
Duration : 1h 56mn
Bit rate : 8 865 Kbps
Width : 1 920 pixels
Height : 804 pixels
Display aspect ratio : 2.40:1
Frame rate mode : Constant
Frame rate : 24.000 fps
Color space : YUV
Chroma subsampling : 4:2:0
Bit depth : 8 bits
Scan type : Progressive
Bits/(Pixel*Frame) : 0.239
Stream size : 7.08 GiB (91%)
Title : 3 dnja na ubijstvo.(2014).BDRip.1080p.[denis100]
Writing library : x264 core 138 r2358 9e941d1
Encoding settings : cabac=1 / ref=5 / deblock=1:-3:-3 / analyse=0x3:0x133 / me=umh / subme=11 / psy=1 / psy_rd=1.00:0.15 / mixed_ref=1 / me_range=32 / chroma_me=1 / trellis=2 / 8x8dct=1 / cqm=0 / deadzone=21,11 / fast_pskip=0 / chroma_qp_offset=-3 / threads=6 / lookahead_threads=1 / sliced_threads=0 / nr=0 / decimate=1 / interlaced=0 / bluray_compat=0 / constrained_intra=0 / bframes=6 / b_pyramid=2 / b_adapt=2 / b_bias=0 / direct=3 / weightb=1 / open_gop=0 / weightp=2 / keyint=240 / keyint_min=23 / scenecut=40 / intra_refresh=0 / rc_lookahead=40 / rc=2pass / mbtree=1 / bitrate=8865 / ratetol=1.0 / qcomp=0.60 / qpmin=0 / qpmax=69 / qpstep=4 / cplxblur=20.0 / qblur=0.5 / ip_ratio=1.40 / aq=1:0.90
Language : English
Default : Yes
Forced : No
Audio
ID : 2
Format : AC-3
Format/Info : Audio Coding 3
Mode extension : CM (complete main)
Format settings, Endianness : Big
Codec ID : A_AC3
Duration : 1h 56mn
Bit rate mode : Constant
Bit rate : 640 Kbps
Channel(s) : 6 channels
Channel positions : Front: L C R, Side: L R, LFE
Sampling rate : 48.0 KHz
Bit depth : 16 bits
Compression mode : Lossy
Stream size : 535 MiB (7%)
Title : Дублированный
Language : Russian
Default : Yes
Forced : No
Menu
00:00:00.000 : en:00:00:00.000
00:10:50.000 : en:00:10:50.000
00:19:10.000 : en:00:19:10.000
00:28:47.000 : en:00:28:47.000
00:39:11.000 : en:00:39:11.000
00:49:10.000 : en:00:49:10.000
00:59:00.000 : en:00:59:00.000
01:10:03.000 : en:01:10:03.000
01:19:52.000 : en:01:19:52.000
01:29:53.000 : en:01:29:53.000
01:39:27.000 : en:01:39:27.000
01:49:31.625 : en:01:49:31.625

x264

x264 [info]: frame I:2174 Avg QP:12.69 size:218401
x264 [info]: frame P:46202 Avg QP:15.51 size: 74597
x264 [info]: frame B:119927 Avg QP:17.40 size: 32073
[Профиль] [ЛС]
Кто просматривает тему:

Показать сообщения:    

Текущее время: Сегодня 18:50

Часовой пояс: GMT



Вы не можете начинать темы
Вы не можете отвечать на сообщения
Вы не можете редактировать свои сообщения
Вы не можете удалять свои сообщения
Вы не можете голосовать в опросах
Вы не можете прикреплять файлы к сообщениям
Вы не можете скачивать файлы