3 дня на убийство / 3 Days to Kill (2014) BDRip 1080p от New-Team | D | лицензия

 
Автор Сообщение

sergej644 ®

Пол:

Стаж: 4 года 11 месяцев

Сообщений: 6038

Откуда: Soviet Union



Награды: Нет

Торрент-статистика

Создавать темы 21-Янв-2015 00:17

[Цитировать]

-Страна: США, Франция, Греция, Россия / 3DTK, EuropaCorp, Feelgood Entertainment, Paradise/MGN, Relativity Media, Wonderland Sound and Vision
Жанр: боевик, криминал, триллер, драма, комедия
Год выпуска: 2014
Продолжительность: 01:56:52
Перевод: Профессиональный (дублированный)
Cубтитры: нет
Оригинальная аудиодорожка: английский
Режиссер: МакДжи / McG
В ролях: Кевин Костнер, Эмбер Хёрд, Хейли Стайнфелд, Конни Нильсен, Томас Лемаркус, Рихард Заммель, Марк Андреони, Бруно Риччи, Йонас Блоке, Эрик Эбони...
Роли дублировали: Александр Головчанский, Полина Щербакова, Наталья Терешкова, Нина Тобилевич, Денис Яковлев...
Описание: В секретной лаборатории ученые разработали препарат, который позволяет человеку справиться с любой неизлечимой болезнью. Руководство спецслужб предлагает принять это лекарство экс-агенту спецслужб Итану Раннеру, которому врачи объявили смертельный диагноз. Но он должен выполнить еще одно задание, которое, впрочем, может стоить ему жизни. Теперь вокруг Раннера начинают происходить странные вещи. Что это — галлюцинации, побочный эффект от таблеток или мир действительно полон ужаса и кошмара?

Качество: BDRip 1080р / Blu-ray 1080p
Формат: MKV
Видео: 1920x808 (2.40:1), MPEG-4 AVC Video 10,4 Мбит/сек / 23.976 fps / Бит/(Пиксели*Кадры) : 0.221
Аудио 1: Dolby Digital Audio Russian 640 kbps 5.1 / 48 kHz / 640 kbps
Аудио 2: DTS English 1536 kbps 5.1 / 48 kHz
Дополнительно: Фильм разбит на главы, как на оригинальном Blu-Ray диске.

MediaInfo

Общее
Полное имя : 3.dnya.na.ubiystvo.2014.D.BDRip.1080p.New-Team.mkv
Формат : Matroska
Версия формата : Version 4 / Version 2
Размер файла : 8,46 Гбайт
Продолжительность : 1 ч. 57 м.
Общий поток : 10,4 Мбит/сек
Дата кодирования : UTC 2014-06-03 17:59:05
Программа кодирования : mkvmerge v6.9.1 ('Blue Panther') 64bit built on Apr 18 2014 18:23:38
Библиотека кодирования : libebml v1.3.0 + libmatroska v1.4.1
Видео
Идентификатор : 1
Формат : AVC
Формат/Информация : Advanced Video Codec
Профиль формата : High@L4.1
Параметр CABAC формата : Да
Параметр ReFrames формата : 5 кадров
Идентификатор кодека : V_MPEG4/ISO/AVC
Продолжительность : 1 ч. 57 м.
Битрейт : 8205 Кбит/сек
Ширина : 1920 пикселей
Высота : 808 пикселей
Соотношение сторон : 2,40:1
Режим частоты кадров : Постоянный
Частота кадров : 23,976 кадра/сек
Цветовое пространство : YUV
Субдискретизация насыщенности : 4:2:0
Битовая глубина : 8 бит
Тип развёртки : Прогрессивная
Бит/(Пиксели*Кадры) : 0.221
Размер потока : 6,54 Гбайт (77%)
Библиотека кодирования : x264 core 142 r2431 ac76440
Настройки программы : cabac=1 / ref=5 / deblock=1:0:0 / analyse=0x3:0x133 / me=umh / subme=7 / psy=1 / psy_rd=1.00:0.00 / mixed_ref=1 / me_range=16 / chroma_me=1 / trellis=1 / 8x8dct=1 / cqm=0 / deadzone=21,11 / fast_pskip=0 / chroma_qp_offset=-2 / threads=12 / lookahead_threads=2 / sliced_threads=0 / nr=0 / decimate=1 / interlaced=0 / bluray_compat=0 / constrained_intra=0 / bframes=3 / b_pyramid=2 / b_adapt=1 / b_bias=0 / direct=1 / weightb=1 / open_gop=0 / weightp=2 / keyint=250 / keyint_min=23 / scenecut=40 / intra_refresh=0 / rc_lookahead=40 / rc=2pass / mbtree=1 / bitrate=8205 / ratetol=1.0 / qcomp=0.60 / qpmin=0 / qpmax=69 / qpstep=4 / cplxblur=20.0 / qblur=0.5 / ip_ratio=1.40 / aq=1:1.00
Язык : English
Default : Да
Forced : Нет
Аудио #1
Идентификатор : 2
Формат : AC-3
Формат/Информация : Audio Coding 3
Расширение режима : CM (complete main)
Параметр Endianness формата : Big
Идентификатор кодека : A_AC3
Продолжительность : 1 ч. 57 м.
Вид битрейта : Постоянный
Битрейт : 640 Кбит/сек
Каналы : 6 каналов
Расположение каналов : Front: L C R, Side: L R, LFE
Частота : 48,0 КГц
Битовая глубина : 16 бит
Метод сжатия : С потерями
Размер потока : 536 Мбайт (6%)
Язык : Russian
Default : Да
Forced : Нет
Аудио #2
Идентификатор : 3
Формат : DTS
Формат/Информация : Digital Theater Systems
Режим : 16
Параметр Endianness формата : Big
Идентификатор кодека : A_DTS
Продолжительность : 1 ч. 57 м.
Вид битрейта : Постоянный
Битрейт : 1509 Кбит/сек
Каналы : 6 каналов
Расположение каналов : Front: L C R, Side: L R, LFE
Частота : 48,0 КГц
Битовая глубина : 24 бит
Метод сжатия : С потерями
Размер потока : 1,23 Гбайт (15%)
Язык : English
Default : Нет
Forced : Нет
Меню
00:00:00.000 : en:00:00:00.000
00:03:35.132 : en:00:03:35.132
00:06:55.206 : en:00:06:55.206
00:10:49.482 : en:00:10:49.482
00:15:27.468 : en:00:15:27.468
00:20:18.467 : en:00:20:18.467
00:24:32.721 : en:00:24:32.721
00:28:36.214 : en:00:28:36.214
00:33:25.420 : en:00:33:25.420
00:36:53.044 : en:00:36:53.044
00:39:32.912 : en:00:39:32.912
00:43:14.926 : en:00:43:14.926
00:48:20.731 : en:00:48:20.731
00:52:12.379 : en:00:52:12.379
00:56:39.855 : en:00:56:39.855
01:07:27.376 : en:01:07:27.376
01:12:36.602 : en:01:12:36.602
01:18:50.809 : en:01:18:50.809
01:24:20.013 : en:01:24:20.013
01:29:43.044 : en:01:29:43.044
01:36:25.529 : en:01:36:25.529
01:39:32.675 : en:01:39:32.675
01:46:41.353 : en:01:46:41.353
01:49:38.822 : en:01:49:38.822

Скриншоты:

[Профиль] [ЛС]
Кто просматривает тему:

Показать сообщения:    

Текущее время: Сегодня 02:15

Часовой пояс: GMT



Вы не можете начинать темы
Вы не можете отвечать на сообщения
Вы не можете редактировать свои сообщения
Вы не можете удалять свои сообщения
Вы не можете голосовать в опросах
Вы не можете прикреплять файлы к сообщениям
Вы не можете скачивать файлы