3 дня на убийство / 3 Days to Kill (МакДжи / McG) [2014, США, Боевик, криминал, триллер, драма, комедия, BDRip] [Театральная версия / Theatrical Cut] Dub

 
Автор Сообщение

Создавать темы 14-Июл-2014 09:07

3 дня на убийство / 3 Days to Kill- Год выпуска: 2014
Страна: США, Франция, Греция, Россия
Жанр: боевик, криминал, триллер, драма, комедия
Продолжительность: 01:57:01
Перевод: Профессиональный (полное дублирование) BD CEE
Cубтитры: нет-Режиссер:
МакДжи / McG-В ролях:
Кевин Костнер (Ethan Renner), Эмбер Хёрд (Vivi Delay), Хейли Стайнфелд (Zooey Renner), Конни Нильсен (Christine Renner), Томас Лемаркус (The Albino), Рихард Заммель (The Wolf), Марк Андреони (Mitat Yilmaz), Бруно Риччи (Guido), Йонас Блоке (Hugh), Эрик Эбони (Jules)-Описание:
В секретной лаборатории ученые разработали препарат, который позволяет человеку справиться с любой неизлечимой болезнью. Руководство спецслужб предлагает принять это лекарство экс-агенту спецслужб Итану Раннеру, которому врачи объявили смертельный диагноз. Но он должен выполнить еще одно задание, которое, впрочем, может стоить ему жизни. Теперь вокруг Раннера начинают происходить странные вещи. Что это — галлюцинации, побочный эффект от таблеток или мир действительно полон ужаса и кошмара?-Релиз группы | IMDB | КиноПоиск | Сэмпл |-Качество: BDRip [3_DAYS_TO_KILL_2014_REMUX_HDCLUB]
Формат: AVI
Видео: 720x304 (2.37:1), 23.976 fps, XviD build 73 ~1391 kbps avg, 0.27 bit/pixel
Аудио: 48 kHz, AC3 Dolby Digital, 3/2 (L,C,R,l,r) + LFE ch, ~384.00 kbps avg
-

Скриншоты

MediaInfo

General
Complete name                            : D:\3_Dnya_na_ubyistvo_2014_BDRip_by_Dalemake.avi
Format                                   : AVI
Format/Info                              : Audio Video Interleave
File size                                : 1.46 GiB
Duration                                 : 1h 57mn
Overall bit rate                         : 1 785 Kbps
Writing application                      : VirtualDubMod 1.5.10.3 | www.virtualdub-fr.org || (build 2550/release)
Writing library                          : VirtualDubMod build 2550/release
Video
ID                                       : 0
Format                                   : MPEG-4 Visual
Format profile                           : Advanced Simple@L5
Format settings, BVOP                    : 1
Format settings, QPel                    : No
Format settings, GMC                     : No warppoints
Format settings, Matrix                  : Custom
Codec ID                                 : XVID
Codec ID/Hint                            : XviD
Duration                                 : 1h 57mn
Bit rate                                 : 1 392 Kbps
Width                                    : 720 pixels
Height                                   : 304 pixels
Display aspect ratio                     : 2.35:1
Frame rate                               : 23.976 fps
Color space                              : YUV
Chroma subsampling                       : 4:2:0
Bit depth                                : 8 bits
Scan type                                : Progressive
Compression mode                         : Lossy
Bits/(Pixel*Frame)                       : 0.265
Stream size                              : 1.14 GiB (78%)
Writing library                          : XviD 73
Audio
ID                                       : 1
Format                                   : AC-3
Format/Info                              : Audio Coding 3
Mode extension                           : CM (complete main)
Format settings, Endianness              : Big
Codec ID                                 : 2000
Duration                                 : 1h 56mn
Bit rate mode                            : Constant
Bit rate                                 : 384 Kbps
Channel(s)                               : 6 channels
Channel positions                        : Front: L C R, Side: L R, LFE
Sampling rate                            : 48.0 KHz
Bit depth                                : 16 bits
Compression mode                         : Lossy
Stream size                              : 321 MiB (22%)
Alignment                                : Split accross interleaves
Interleave, duration                     : 42 ms (1.00 video frame)
Interleave, preload duration             : 500 ms
-14.06.2014. Торрент файл перезалит. Замена звука.-
 
Кто просматривает тему:

Показать сообщения:    

Текущее время: Сегодня 18:15

Часовой пояс: GMT



Вы не можете начинать темы
Вы не можете отвечать на сообщения
Вы не можете редактировать свои сообщения
Вы не можете удалять свои сообщения
Вы не можете голосовать в опросах
Вы не можете прикреплять файлы к сообщениям
Вы не можете скачивать файлы