28 спален / 28 Hotel Rooms (2012) HDTV 1080i от MediaClub | P

 
Автор Сообщение

sergej644 ®

Пол:

Стаж: 4 года 11 месяцев

Сообщений: 6045

Откуда: Soviet Union



Награды: Нет

Торрент-статистика

Создавать темы 04-Дек-2014 18:45

[Цитировать]

Информация о фильме
Название: 28 спален
Оригинальное название: 28 Hotel Rooms
Год выхода: 2012
Жанр: Драма
Режиссер: Мэтт Росс
В ролях: Марин Айрлэнд, Крис Мессина, Роберт Димер, Бретт Колье
О фильме:
Мужчина и женщина приезжают по работе в один и тот же город и останавливаются на ночь в одной гостинице. Через несколько месяцев они сталкиваются друг с другом в гостиничном ресторане другого города и второй раз проводят ночь вместе. Несмотря на то, что она замужем, а у него есть подруга, они решают продолжать встречаться. Так зарождается неожиданная любовь, постепенно перерастающая в глубокие отношения, которые грозят существенно изменить всю их жизнь…

Страна: США
Студия: Mott Street Pictures, OneZero Productions, Silverwood Films, Sundial Pictures
Продолжительность: 01:18:59
Перевод: Профессиональный многоголосый
Файл
Кодек: MPEG-4 AVC
Качество: HDTV 1080i
Видео: 6063 Кбит/с, 1920x1080, 25.000 кадр/с
Звук: Русский (АС3, 2 ch, 448 Кбит/с)
Семпл

Скриншоты

MI

Общее
Идентификатор : 12 (0xC)
Полное имя : 28.spalen.2012.HDTV(1080i).MediaClub.ts
Формат : MPEG-TS
Размер файла : 3,78 Гбайт
Продолжительность : 1 ч. 18 м.
Режим общего битрейта : Переменный
Общий поток : 6854 Кбит/сек
Видео
Идентификатор : 321 (0x141)
Идентификатор меню : 12101 (0x2F45)
Формат : AVC
Формат/Информация : Advanced Video Codec
Профиль формата : High@L4.0
Параметр CABAC формата : Да
Параметр ReFrames формата : 4 кадра
Идентификатор кодека : 27
Продолжительность : 1 ч. 18 м.
Битрейт : 6063 Кбит/сек
Ширина : 1920 пикселей
Высота : 1080 пикселей
Соотношение сторон : 16:9
Частота кадров : 25,000 кадров/сек
Стандарт вещания : Component
Цветовое пространство : YUV
Субдискретизация насыщенности : 4:2:0
Битовая глубина : 8 бит
Тип развёртки : Чересстрочная
Порядок развёртки : Верхнее поле первое
Бит/(Пиксели*Кадры) : 0.117
Размер потока : 3,35 Гбайт (88%)
Основные цвета : BT.709
Характеристики трансфера : BT.709
Коэффициенты матрицы : BT.709
Аудио
Идентификатор : 401 (0x191)
Идентификатор меню : 12101 (0x2F45)
Формат : AC-3
Формат/Информация : Audio Coding 3
Расширение режима : CM (complete main)
Параметр Endianness формата : Big
Идентификатор кодека : 6
Продолжительность : 1 ч. 18 м.
Вид битрейта : Постоянный
Битрейт : 448 Кбит/сек
Каналы : 2 канала
Расположение каналов : Front: L R
Частота : 48,0 КГц
Битовая глубина : 16 бит
Метод сжатия : С потерями
Задержка видео : -683 мс.
Размер потока : 253 Мбайт (7%)
Язык : Russian
Язык, дополнительно : Clean effects
Меню
Идентификатор : 3301 (0xCE5)
Идентификатор меню : 12101 (0x2F45)
Продолжительность : 1 ч. 18 м.
Список : 321 (0x141) (AVC) / 401 (0x191) (AC-3, Russian)
Язык : / Russianm
Релиз от:
[Профиль] [ЛС]

Создавать темы 06-Авг-2015 22:58 (спустя 8 месяцев 2 дня)

Топик был перенесен из форума Фильмы до 2014 года в форум Фильмы 2012 года
sergej644
 
Кто просматривает тему:

Показать сообщения:    

Текущее время: Сегодня 20:25

Часовой пояс: GMT



Вы не можете начинать темы
Вы не можете отвечать на сообщения
Вы не можете редактировать свои сообщения
Вы не можете удалять свои сообщения
Вы не можете голосовать в опросах
Вы не можете прикреплять файлы к сообщениям
Вы не можете скачивать файлы