(Rock) [LP] [24/96] Led Zeppelin - Through The Out Door - 1979, FLAC (tracks+.cue)

 
Автор Сообщение

sergej644 ®

Пол:

Стаж: 4 года 11 месяцев

Сообщений: 6043

Откуда: Soviet Union



Награды: Нет

Торрент-статистика

Создавать темы 17-Май-2015 21:06

[Цитировать]

--Led Zeppelin - Through The Out Door
Жанр: Rock
Носитель: LP
Год выпуска: 1979
Лейбл: Swan Song – SS 16002
Страна-производитель: US
Аудио кодек: FLAC
Тип рипа: tracks+.cue
Формат записи: 24/96
Формат раздачи: 24/96
Продолжительность: 00:42:31
Треклист:
A1 In The Evening
A2 South Bound Suarez
A3 Fool In The Rain
A4 Hot Dog
B1 Carouselambra
B2 All My Love
B3 I'm Gonna Crawl
Источник оцифровки: boticario
Код класса состояния винила: NM

Спектр

АЧХ

Уровень записи

Тех. информация

SHUNYATA RESEARCH HYDRA V-RAY VERSION II (Power distribution, conditioner and filter)
WINYL RECORD CLEANER, vinyl record cleaner.
RCM: Clearaudio Smart Matrix (ClearAudio Pure Groove + L’Art du Son Cleaning Fluid + Osage brush)
Ultrasonic Cleaning (40 kHz) for 30?-60' at 35°C max. with personal blend of wetting agents and surfactants.
THE CLEAN Continuous Battery Power Supply (CBPS) Dr. Feickert for turntables.
TURNTABLE: Dr. Feickert Blackbird + INERTIA platter
TONEARM: Reed 3Q 10,5" (Finewire C37 + Cryo WBT Nextgen, Armwand Pernambuco, Headshell with VTA and Azimuth laser adjustment)
CARTRIDGE: Dynavector DV DRT XV-1t
PHONO STAGE: Allnic H-3000 (+22 dB GAIN, charge impedance 177 Ohm)
ADC SYSTEM: Lavry Black AD11 external USB 2.0 ADC
Vinyl condition NM
Manual declick with iZotopeRX

подробно

RIG:
SHUNYATA RESEARCH HYDRA V-RAY VERSION II (Power distribution, conditioner and filter)
WINYL RECORD CLEANER, vinyl record cleaner.
RCM: Clearaudio Smart Matrix (ClearAudio Pure Groove + L’Art du Son Cleaning Fluid + Osage brush)
Ultrasonic Cleaning (40 kHz) for 30′-60' at 35°C max. with personal blend of wetting agents and surfactants.
THE CLEAN Continuous Battery Power Supply (CBPS) Dr. Feickert for turntables.
TURNTABLE: Dr. Feickert Blackbird + INERTIA platter
TONEARM: Reed 3Q 10,5" (Finewire C37 + Cryo WBT Nextgen, Armwand Pernambuco, Headshell with VTA and Azimuth laser adjustment)
CARTRIDGE: Dynavector DV DRT XV-1t
PHONO STAGE: Allnic H-3000 (+22 dB GAIN, charge impedance 177 Ohm)
ADC SYSTEM: Lavry Black AD11 external USB 2.0 ADC
CABLES:
FONO ACUSTICA ALLEGRO Interconnect Cable TS/RCA made expressly for me (for connecting phono preamp and ADC system)
SYNERGISTIC Research USB Active SE Cable with Enigma Tuning Circuits (for connecting ADC system and PC)
Furutech G-314AG-18 High performance Power Cable (4 power cables total)
Synergistic Research SR Core RCA (for connecting signal from the PC to the amplifier)
AND ALSO...
FURUTECH Destat II, Static charge remover
Lyra SPT (stylus performance treatment)
Platterspeed for iPod Touch (Dr. Feickert) speed verifier
ALLNIC Speednic
SOFTWARE:
Adobe Audition CS6 (record 24/96)
Izotope RX3 Advanced (big clicks repair)
FLAC FRONTEND v.2.0 using FLAC 1.3.0 (WAV --> FLAC)
PENAUDIO REBEL3 Monitor Loudspeakers
HEGEL 100 Amplifier
RIPPING NOTE:
No Equalization, Minor Click repair (whenever possible an manual mode with Izotope RX), No Noise Reduction and No Normalization.
No silence been removed.
THE DYNAMIC RANGE OF THIS CAPTURE WAS NOT ALTERED IN ANY WAY DURING EDITING.
The two channels have been captured at the same volume level with my ADC system. The imbalance between channels, so you can appreciate, it's own vinyl or behavior of my phono preamp to valves. No two valves are identical. In addition, the azimuth of my tonearm-cartridge is perfectly checked by the device laser, being the difference between channels of ±0,2 db

DR13

foobar2000 1.3.3 / Dynamic Range Meter 1.1.1
log date: 2015-05-15 12:23:16
--------------------------------------------------------------------------------
Analyzed: Led Zeppelin / In Through The Out Door {US, Presswell}
--------------------------------------------------------------------------------
DR Peak RMS Duration Track
--------------------------------------------------------------------------------
DR14 -1.01 dB -17.27 dB 6:51 ?-A1 In The Evening
DR12 -1.68 dB -16.12 dB 4:14 ?-A2 South Bound Suarez
DR13 -1.35 dB -17.54 dB 6:13 ?-A3 Fool In The Rain
DR13 -2.50 dB -16.91 dB 3:14 ?-A4 Hot Dog
DR14 -0.09 dB -17.22 dB 10:35 ?-B1 Carouselambra
DR14 -0.85 dB -17.97 dB 5:56 ?-B2 All My Love
DR13 -1.36 dB -18.67 dB 5:30 ?-B3 I'm Gonna Crawl
--------------------------------------------------------------------------------
Number of tracks: 7
Official DR value: DR13
Samplerate: 96000 Hz
Channels: 2
Bits per sample: 24
Bitrate: 2811 kbps
Codec: FLAC
================================================================================

Personel

John Bonham – drums
John Paul Jones – bass guitar, mandolin, keyboards, synthesizer, piano
Jimmy Page – electric & acoustic guitars, Gizmotron
Robert Plant – lead vocals

Доп. информация

Cover 'E' Variation
Mastered At – Strawberry Mastering
Pressed By – Presswell
Matrix / Runout (Runout A): ST-SS-794345-M STRAWBERRY (PR) P
Matrix / Runout (Runout B): ST-SS-794346-M STRAWBERRY (PR) P

Scans

]
[Профиль] [ЛС]

Создавать темы 13-Авг-2015 11:57 (спустя 2 месяца 26 дней)

Топик был перенесен из форума Музыка ( DVD, DVDrip, HD, HDRip Video) (Vinyl-Rip и Hand-Made) в форум Vinyl-Rip и Hand-Made
sergej644
 
Показать сообщения:    

Текущее время: Сегодня 14:39

Часовой пояс: GMT



Вы не можете начинать темы
Вы не можете отвечать на сообщения
Вы не можете редактировать свои сообщения
Вы не можете удалять свои сообщения
Вы не можете голосовать в опросах
Вы не можете прикреплять файлы к сообщениям
Вы не можете скачивать файлы