(Hard Rock) 220 Volt / Eye To Eye [Japan, 25.8P-5089, 1988] - 1988, FLAC (image+.cue), lossless

 
Автор Сообщение

sergej644 ®

Пол:

Стаж: 4 года 11 месяцев

Сообщений: 6042

Откуда: Soviet Union



Награды: Нет

Торрент-статистика

Создавать темы 14-Фев-2015 00:47

[Цитировать]

220 Volt / Eye To Eye
Жанр: Hard Rock
Страна: Швеция
Год выхода альбома: 1988
Год выпуска диска: 1988
Производитель диска: Япония
Продолжительность: 42:34
Источник (релизер): Собственный рип
Наличие сканов в содержимом раздачи: да
Треклист:
1. The Harder They Come (03:49)
2. I'm on Fire (4:24)
3. Beat of the Heart (04:15)
4. Eye to Eye (03:47)
5. Love Is all You Need (04:09)
6. Live It up (03:39)
7. Money Talks (04:01)
8. Dangerous (03:35)
9. Still in Love (04:09)
10. Dog Eat Dog (03:11)
11. On The Other Side (03:34)
Доп. информация:
Лейбл: EPIC/CBS
Номер по каталогу: 25.8P-5089
Матрица: DP-2808 1 (SONY)

Лог создания рипа

Exact Audio Copy V1.0 beta 3 from 29. August 2011
Отчёт EAC об извлечении, выполненном 11. января 2012, 17:18
220 Volt / Eye To Eye [25 8P-5089]
Дисковод: Optiarc DVD RW AD-7200A   Adapter: 1  ID: 0
Режим чтения                 : Достоверность
Использование точного потока : Да
Отключение кэша аудио        : Да
Использование указателей C2  : Нет
Коррекция смещения при чтении                     : 48
Способность читать области Lead-in и Lead-out     : Нет
Заполнение пропущенных сэмплов тишиной            : Да
Удаление блоков с тишиной в начале и конце        : Нет
При вычислениях CRC использовались нулевые сэмплы : Да
Интерфейс                                         : Встроенный Win32-интерфейс для Win NT/2000
Выходной формат          : Пользовательский кодировщик
Выбранный битрейт        : 32 kBit/s
Качество                 : Высокий
Добавление ID3-тега      : Нет
Утилита сжатия           : C:\Program Files\Exact Audio Copy\Flac\flac.exe
Дополнительные параметры : -V -8 -T "Date=%year%" -T "Genre=%genre%" %source%
TOC извлечённого CD
     Трек |   Старт  | Длительность | Начальный сектор | Конечный сектор
    ---------------------------------------------------------------------
       1  |  0:00.00 |    3:49.15   |           0      |      17189
       2  |  3:49.15 |    4:23.60   |       17190      |      36974
       3  |  8:13.00 |    4:15.17   |       36975      |      56116
       4  | 12:28.17 |    3:47.10   |       56117      |      73151
       5  | 16:15.27 |    4:09.35   |       73152      |      91861
       6  | 20:24.62 |    3:39.28   |       91862      |     108314
       7  | 24:04.15 |    4:01.27   |      108315      |     126416
       8  | 28:05.42 |    3:34.38   |      126417      |     142504
       9  | 31:40.05 |    4:08.70   |      142505      |     161174
      10  | 35:49.00 |    3:11.35   |      161175      |     175534
      11  | 39:00.35 |    3:33.72   |      175535      |     191581
Характеристики диапазона извлечения и сообщения об ошибках
Выбранный диапазон
     Имя файла Z:\Музыка\220 Volt\1988 Eye To Eye\220 Volt - Eye To Eye [25 8P-5089].wav
     Пиковый уровень 100.0 %
     Скорость извлечения 3.5 X
     Качество диапазона 99.9 %
     CRC теста 8BDCB594
     CRC копии 8BDCB594
     Копирование... OK
Ошибок не произошло
AccurateRip: сводка
Трек  1  точность не определена (достоверность 1)  [507EF4A1], AccurateRip вернул [B64568F4]  (AR v2)
Трек  2  точность не определена (достоверность 1)  [1D5D74A1], AccurateRip вернул [FDF39641]  (AR v2)
Трек  3  точность не определена (достоверность 1)  [2134D324], AccurateRip вернул [79FAB9D3]  (AR v2)
Трек  4  точность не определена (достоверность 1)  [9B5717CC], AccurateRip вернул [962688BE]  (AR v2)
Трек  5  точность не определена (достоверность 1)  [D2DDF0C9], AccurateRip вернул [7C820778]  (AR v2)
Трек  6  точность не определена (достоверность 1)  [081B2FE3], AccurateRip вернул [4F74FB9B]  (AR v2)
Трек  7  точность не определена (достоверность 1)  [C7BA8C16], AccurateRip вернул [F24AD855]  (AR v2)
Трек  8  точность не определена (достоверность 1)  [ED175D3A], AccurateRip вернул [EDA2651D]  (AR v2)
Трек  9  точность не определена (достоверность 1)  [A3AFF36D], AccurateRip вернул [53D2B596]  (AR v2)
Трек 10  точность не определена (достоверность 1)  [E03B79C3], AccurateRip вернул [A9B82C2C]  (AR v2)
Трек 11  точность не определена (достоверность 1)  [8630BAE6], AccurateRip вернул [59989E21]  (AR v2)
Ни один трек не прошёл проверки на точность
В вашей базе может быть иной вариант штамповки диска
Конец отчёта
==== Контрольная сумма отчёта D8D13B3C0B192AB5D12569F35472E165A1F857B965004B87C51816CEA1B8AB36 ====

Содержание индексной карты (.CUE)

REM GENRE "Hard Rock"
REM DATE 1988
REM DISCID 8D09FA0B
REM COMMENT "ExactAudioCopy v1.0b3"
PERFORMER "220 Volt"
TITLE "Eye To Eye [25 8P-5089]"
FILE "220 Volt - Eye To Eye [25 8P-5089].flac" WAVE
  TRACK 01 AUDIO
    TITLE "The Harder They Come"
    PERFORMER "220 Volt"
    INDEX 01 00:00:00
  TRACK 02 AUDIO
    TITLE "I'm On Fire"
    PERFORMER "220 Volt"
    INDEX 01 03:49:15
  TRACK 03 AUDIO
    TITLE "Beat Of A Heart"
    PERFORMER "220 Volt"
    INDEX 00 08:11:32
    INDEX 01 08:13:00
  TRACK 04 AUDIO
    TITLE "Eye To Eye"
    PERFORMER "220 Volt"
    INDEX 00 12:26:65
    INDEX 01 12:28:17
  TRACK 05 AUDIO
    TITLE "Love Is All You Need"
    PERFORMER "220 Volt"
    INDEX 01 16:15:27
  TRACK 06 AUDIO
    TITLE "Live It Up"
    PERFORMER "220 Volt"
    INDEX 00 20:22:70
    INDEX 01 20:24:62
  TRACK 07 AUDIO
    TITLE "Money Talks"
    PERFORMER "220 Volt"
    INDEX 01 24:04:15
  TRACK 08 AUDIO
    TITLE "Dangerous"
    PERFORMER "220 Volt"
    INDEX 01 28:05:42
  TRACK 09 AUDIO
    TITLE "Still In Love"
    PERFORMER "220 Volt"
    INDEX 00 31:39:05
    INDEX 01 31:40:05
  TRACK 10 AUDIO
    TITLE "Dog Eat Dog"
    PERFORMER "220 Volt"
    INDEX 01 35:49:00
  TRACK 11 AUDIO
    TITLE "On The Other Side"
    PERFORMER "220 Volt"
    INDEX 00 38:59:35
    INDEX 01 39:00:35

Состав:

Mats Karlsson - guitars
Mike "Larsson" Krusenberg - bass
Peter Hermansson - drums
Jocke Lundholm - vocals
Peter Olander - guitars
[Профиль] [ЛС]
Показать сообщения:    

Текущее время: Сегодня 16:20

Часовой пояс: GMT



Вы не можете начинать темы
Вы не можете отвечать на сообщения
Вы не можете редактировать свои сообщения
Вы не можете удалять свои сообщения
Вы не можете голосовать в опросах
Вы не можете прикреплять файлы к сообщениям
Вы не можете скачивать файлы