22 минуты (Василий Сериков) [2014, Россия, боевик, WEB-DL 720p] [Open Matte]

 
Автор Сообщение

TorrentFilm ®

Пол:

Стаж: 2 года

Сообщений: 7741



Награды: Нет

Торрент-статистика

Создавать темы 19-Фев-2016 00:08

[Цитировать]

22 минуты / Open Matte
Страна: Россия
Жанр: боевик
Год выпуска: 2014
Продолжительность: 01:19:31
Перевод: Не требуется
Cубтитры: нет
Режиссер: Василий Сериков
В ролях: Макар Запорожский, Денис Никифоров, Виктор Сухоруков, Екатерина Маликова, Гаэль Камилинди, Александр Галибин, Владислав Демин, Ибрагим Тооре, Софья Козко, Иван Породнов
Описание: Морпех — первогодок Саня Ежов оказывается среди пиратов на захваченном танкере. Он знает — товарищи не бросят. Ему нужно выжить и помочь своим, когда начнется штурм. Фильм основан на реальных событиях 5 мая 2010 года, когда морские пехотинцы БПК «Маршал Шапошников» освободили захваченный в водах Аденского залива российский танкер «Московский университет». У них было только 22 минуты без права на ошибку…
Доп. информация: Звуковая дорожка заменена на лицензию с BD диска. Различия BD / DVD и WEB-DL - разное наполнение кадра - 16:9 (1.78:1) -> http://screenshotcomparison.com/comparison/96029
Сэмпл: http://multi-up.com/1088572
Тип релиза: WEB-DL 720p
Контейнер: MKV
Видео: MPEG-4 AVC/H.264 / 3831 kbps / 960x720@1280x720 / 25.000 fps
Аудио: AC3 / 6 ch / 640 kbps / 48 kHz

MediaInfo

General
Unique ID : 208594670669449364480834745881022165749 (0x9CEDDF4BA8443362B960F460540BF2F5)
Complete name : J:\Torrents\22 минуты (2014) WEB-DL-720p [Open Matte].mkv
Format : Matroska
Format version : Version 2
File size : 2.55 GiB
Duration : 1h 19mn
Overall bit rate : 4 592 Kbps
Movie name : 22 минуты (2014) [Open Matte]
Encoded date : UTC 2016-02-10 16:21:04
Writing application : mkvmerge v5.5.0 ('Healer') built on Apr 24 2012 23:47:03
Writing library : libebml v1.2.3 + libmatroska v1.3.0
Video
ID : 1
Format : AVC
Format/Info : Advanced Video Codec
Format profile : Main@L3.1
Format settings, CABAC : No
Format settings, ReFrames : 2 frames
Codec ID : V_MPEG4/ISO/AVC
Duration : 1h 19mn
Bit rate : 3 861 Kbps
Width : 960 pixels
Height : 720 pixels
Display aspect ratio : 16:9
Frame rate mode : Constant
Frame rate : 25.000 fps
Color space : YUV
Chroma subsampling : 4:2:0
Bit depth : 8 bits
Scan type : Progressive
Bits/(Pixel*Frame) : 0.223
Stream size : 2.14 GiB (84%)
Title : WEB-DL (720p) / MPEG-4 AVC/H.264 / 3831 kbps / 960x720@1280x720 / 25.000 fps
Language : Russian
Default : Yes
Forced : Yes
Color range : Limited
Color primaries : BT.709
Transfer characteristics : BT.709
Matrix coefficients : BT.709
Audio
ID : 2
Format : AC-3
Format/Info : Audio Coding 3
Mode extension : CM (complete main)
Format settings, Endianness : Big
Codec ID : A_AC3
Duration : 1h 19mn
Bit rate mode : Constant
Bit rate : 640 Kbps
Channel(s) : 6 channels
Channel positions : Front: L C R, Side: L R, LFE
Sampling rate : 48.0 KHz
Frame rate : 31.250 fps (1536 spf)
Compression mode : Lossy
Stream size : 364 MiB (14%)
Title : Original (Rus) / AC3 / 6 ch / 640 kbps / 48 kHz
Language : Russian
Default : Yes
Forced : Yes
Menu
00:00:00.000 : en:Глава 1
00:07:12.000 : en:Глава 2
00:12:17.000 : en:Глава 3
00:17:21.000 : en:Глава 4
00:22:21.000 : en:Глава 5
00:27:23.000 : en:Глава 6
00:32:29.000 : en:Глава 7
00:37:52.000 : en:Глава 8
00:43:00.000 : en:Глава 9
00:48:02.000 : en:Глава 10
00:53:09.000 : en:Глава 11
00:58:12.000 : en:Глава 12
01:03:13.000 : en:Глава 13
01:08:18.000 : en:Глава 14

Скриншоты

[Профиль] [ЛС]
Кто просматривает тему:

Показать сообщения:    

Текущее время: Сегодня 06:28

Часовой пояс: GMT



Вы не можете начинать темы
Вы не можете отвечать на сообщения
Вы не можете редактировать свои сообщения
Вы не можете удалять свои сообщения
Вы не можете голосовать в опросах
Вы не можете прикреплять файлы к сообщениям
Вы не можете скачивать файлы