22 минуты / (2014) BDRip [576p] iPad

 
Автор Сообщение

sergej644 ®

Пол:

Стаж: 4 года 11 месяцев

Сообщений: 6046

Откуда: Soviet Union



Награды: Нет

Торрент-статистика

Создавать темы 24-Авг-2014 10:45

[Цитировать]

-22 минуты / (2014) BDRip [576p] iPad
«Своих не бросаем»
- Год выпуска: 2014
Страна: Россия
Жанр: Боевик
Продолжительность: 01:22:48
Перевод: Не требуется
Оригинальная аудиодорожка: Есть
Режиссёр: Василий Сериков
Сценарий: Игорь Порублев
Продюсер: Алексей Сидоров
Оператор: Дмитрий Яшонков
Композитор: Иван Урюпин
В ролях: Макар Запорожский, Денис Никифоров, Виктор Сухоруков, Екатерина Маликова, Гаэль Камилинди, Александр Галибин, Владислав Демин, Ибрагим Тооре, Софья Козко, Иван Породнов
Бюджет: $6 500 000
Сборы в России: $669 601
Мировая премьера: 8 мая 2014
Премьера (РФ): 8 мая 2014, «Централ Партнершип»

Описание: Морпех — первогодок Саня Ежов оказывается среди пиратов на захваченном танкере. Он знает — товарищи не бросят. Ему нужно выжить и помочь своим, когда начнется штурм. Фильм основан на реальных событиях 5 мая 2010 года, когда морские пехотинцы БПК «Маршал Шапошников» освободили захваченный в водах Аденского залива российский танкер «Московский университет». У них было только 22 минуты без права на ошибку…-Качество исходника: BDRemux
Качество: BDRip
Тип: SD (576p)
Контейнер: M4V
Видео: H.264, 1024x432, 2.40:1, 2 200 Kbps, 23.976 fps
Аудио: Русский/Оригинальная дорожка , AAC / 2.0 / 159 Kbps / 48.0 KHz-

iTunes Meta Tags

Sort Name: 22 минуты
XID: Apple:vendor_id:2013-644706
contentID: 644706
Screenwriters: Игорь Порублев
Producers: Алексей Сидоров
Director: Василий Сериков
Cast: Макар Запорожский, Денис Никифоров, Виктор Сухоруков, Екатерина Маликова, Гаэль Камилинди, Александр Галибин, Владислав Демин, Ибрагим Тооре, Софья Козко, Иван Породнов
Rating: 4
Long Description: Морпех - первогодок Саня Ежов оказывается среди пиратов на захваченном танкере. Он знает - товарищи не бросят. Ему нужно выжить и помочь своим, когда начнется штурм. Фильм основан на реальных событиях 5 мая 2010 года, когда морские пехотинцы БПК "Маршал Шапошников" освободили захваченный в водах Аденского залива российский танкер "Московский университет". У них было только 22 минуты без права на ошибку...
Description: Морпех - первогодок Саня Ежов оказывается среди пиратов на захваченном танкере. Он знает - товарищи не бросят. Ему нужно выжить и помочь своим, когда начнется штурм. Фильм основан на реальных событиях 5 мая 2010 года, когда морские пехотинцы БПК "Маршал Шапошников" освободили захваченный в водах Аденского залива российский танкер "Московский университет". У них было только 22 минуты без права на ошибку...
Release Date: 2014-05-08T08:00:00Z
Genre: Боевик
Artist: Василий Сериков
Name: 22 минуты

MI

General
Complete name                            : /Users/imac/HandBrake/22.Minuti.(SD).(pk).m4v
Format                                   : MPEG-4
Codec ID                                 : M4V
File size                                : 1.36 GiB
Duration                                 : 1h 22mn
Overall bit rate mode                    : Variable
Overall bit rate                         : 2 358 Kbps
Movie name                               : 22 минуты
Performer                                : Василий Сериков
Genre                                    : Боевик
Recorded date                            : UTC 2014-05-08 08:00:00
Encoded date                             : UTC 2014-06-13 09:35:58
Tagged date                              : UTC 2014-06-13 09:42:48
Cover                                    : Yes
sonm                                     : 22 минуты
desc                                     : Морпех - первогодок Саня Ежов оказывается среди пиратов на захваченном танкере. Он знает - товарищи не бросят. Ему нужно выжить и помочь своим, когда начнется штурм. Фильм основан на реальных событиях 5 мая 2010 года, когда морские пехотинцы БПК "Маршал Шапошников" освободили захваченный в водах Аденского залива российский танкер "Московский университет". У них было только 22 минуты без права на ошибку...
ldes                                     : Морпех - первогодок Саня Ежов оказывается среди пиратов на захваченном танкере. Он знает - товарищи не бросят. Ему нужно выжить и помочь своим, когда начнется штурм. Фильм основан на реальных событиях 5 мая 2010 года, когда морские пехотинцы БПК "Маршал Шапошников" освободили захваченный в водах Аденского залива российский танкер "Московский университет". У них было только 22 минуты без права на ошибку...
stik                                     : 9
rtng                                     : 0
cnID                                     : 644706
xid                                      : Apple:vendor_id:2013-644706
iTunEXTC                                 : ru-movie|16+|375|
iTunMOVI                                 :  /  /  /  /   cast /    /      /       name /       Макар Запорожский /      /      /       name /       Денис Никифоров /      /      /       name /       Виктор Сухоруков /      /      /       name /       Екатерина Маликова /      /      /       name /       Гаэль Камилинди /      /      /       name /       Александр Галибин /      /      /       name /       Владислав Демин /      /      /       name /       Ибрагим Тооре /      /      /       name /       Софья Козко /      /      /       name /       Иван Породнов /      /    /   directors /    /      /       name /       Василий Сериков /      /    /   producers /    /      /       name /       Алексей Сидоров /      /    /   screenwriters /    /      /       name /       Игорь Порублев /      /    /  /
Video #1
ID                                       : 1
Format                                   : AVC
Format/Info                              : Advanced Video Codec
Format profile                           : [url=mailto:High@L3.1]High@L3.1[/url]
Format settings, CABAC                   : Yes
Format settings, ReFrames                : 9 frames
Codec ID                                 : avc1
Codec ID/Info                            : Advanced Video Coding
Duration                                 : 1h 22mn
Bit rate mode                            : Variable
Bit rate                                 : 2 200 Kbps
Width                                    : 1 024 pixels
Height                                   : 432 pixels
Display aspect ratio                     : 2.40:1
Frame rate mode                          : Variable
Frame rate                               : 23.976 fps
Minimum frame rate                       : 23.810 fps
Maximum frame rate                       : 24.318 fps
Color space                              : YUV
Chroma subsampling                       : 4:2:0
Bit depth                                : 8 bits
Scan type                                : Progressive
Bits/(Pixel*Frame)                       : 0.207
Stream size                              : 1.27 GiB (93%)
Writing library                          : x264 core 130 r2273 b3065e6
Encoding settings                        : cabac=1 / ref=9 / deblock=1:0:0 / analyse=0x3:0x113 / me=umh / subme=9 / psy=1 / psy_rd=1.00:0.00 / mixed_ref=1 / me_range=32 / chroma_me=1 / trellis=1 / 8x8dct=1 / cqm=0 / deadzone=21,11 / fast_pskip=1 / chroma_qp_offset=-2 / threads=12 / lookahead_threads=1 / sliced_threads=0 / nr=0 / decimate=1 / interlaced=0 / bluray_compat=0 / constrained_intra=0 / bframes=6 / b_pyramid=2 / b_adapt=2 / b_bias=0 / direct=1 / weightb=1 / open_gop=0 / weightp=2 / keyint=240 / keyint_min=24 / scenecut=40 / intra_refresh=0 / rc_lookahead=40 / rc=2pass / mbtree=1 / bitrate=2200 / ratetol=1.0 / qcomp=0.60 / qpmin=0 / qpmax=69 / qpstep=4 / cplxblur=20.0 / qblur=0.5 / ip_ratio=1.40 / aq=1:1.00
Language                                 : Russian
Encoded date                             : UTC 2014-06-13 09:35:58
Tagged date                              : UTC 2014-06-13 09:36:48
Color primaries                          : BT.709-5, BT.1361, IEC 61966-2-4, SMPTE RP177
Transfer characteristics                 : BT.709-5, BT.1361
Matrix coefficients                      : BT.709-5, BT.1361, IEC 61966-2-4 709, SMPTE RP177
Video #2
ID                                       : 4
Format                                   : JPEG
Codec ID                                 : jpeg
Duration                                 : 1h 22mn
Bit rate mode                            : Variable
Bit rate                                 : 595 bps
Width                                    : 640 pixels
Height                                   : 270 pixels
Display aspect ratio                     : 2.40:1
Frame rate mode                          : Variable
Frame rate                               : 0.002 fps
Minimum frame rate                       : 0.001 fps
Maximum frame rate                       : 0.245 fps
Color space                              : YUV
Chroma subsampling                       : 4:2:0
Bit depth                                : 8 bits
Compression mode                         : Lossy
Bits/(Pixel*Frame)                       : 1.722
Stream size                              : 327 KiB (0%)
Language                                 : Russian
Encoded date                             : UTC 2014-06-13 09:36:58
Tagged date                              : UTC 2014-06-13 09:36:59
Audio
ID                                       : 2
Format                                   : AAC
Format/Info                              : Advanced Audio Codec
Format profile                           : LC
Codec ID                                 : 40
Duration                                 : 1h 22mn
Bit rate mode                            : Variable
Bit rate                                 : 159 Kbps
Maximum bit rate                         : 226 Kbps
Channel(s)                               : 2 channels
Channel positions                        : Front: L R
Sampling rate                            : 48.0 KHz
Compression mode                         : Lossy
Stream size                              : 94.4 MiB (7%)
Language                                 : Russian
Encoded date                             : UTC 2014-06-13 09:35:58
Tagged date                              : UTC 2014-06-13 09:36:55
Text
ID                                       : 3
Format                                   : Apple text
Codec ID                                 : text
Duration                                 : 1h 22mn
Bit rate mode                            : Constant
Bit rate                                 : 0 bps
Stream size                              : 243 Bytes (0%)
Language                                 : Russian
Encoded date                             : UTC 2014-06-13 09:36:55
Tagged date                              : UTC 2014-06-13 09:36:55
Menu
00:00:00.000                             : ru Chapter 01
00:00:04.087                             : ru Chapter 02
00:08:16.287                             : ru Chapter 03
00:19:07.896                             : ru Chapter 04
00:30:32.788                             : ru Chapter 05
00:39:31.284                             : ru Chapter 06
00:54:49.618                             : ru Chapter 07
01:01:45.491                             : ru Chapter 08
01:11:12.640                             : ru Chapter 09

x264 лог

264 [info]: frame I:1275  Avg QP:16.02  size: 60114  PSNR Mean Y:47.41 U:50.41 V:50.63 Avg:48.07 Global:47.60
x264 [info]: frame P:33793 Avg QP:19.08  size: 19628  PSNR Mean Y:45.62 U:50.00 V:49.99 Avg:46.30 Global:45.53
x264 [info]: frame B:84051 Avg QP:21.31  size:  7399  PSNR Mean Y:44.36 U:49.44 V:49.54 Avg:45.12 Global:44.37
x264 [info]: consecutive B-frames:  5.4%  6.9% 18.5% 29.7% 18.2% 14.6%  6.6%
x264 [info]: mb I  I16..4: 13.2% 61.8% 25.1%
x264 [info]: mb P  I16..4:  4.5% 15.6%  4.1%  P16..4: 35.2% 19.3% 11.2%  0.0%  0.0%    skip:10.2%
x264 [info]: mb B  I16..4:  0.5%  1.9%  0.8%  B16..8: 39.8% 10.2%  3.2%  direct: 5.4%  skip:38.3%  L0:43.4% L1:45.9% BI:10.8%
x264 [info]: 8x8 transform intra:63.0% inter:71.2%
x264 [info]: coded y,uvDC,uvAC intra: 72.0% 82.5% 57.8% inter: 25.3% 29.2% 5.2%
x264 [info]: i16 v,h,dc,p: 35% 19%  9% 36%
x264 [info]: i8 v,h,dc,ddl,ddr,vr,hd,vl,hu:  8% 11%  6%  9% 14% 13% 15% 11% 14%
x264 [info]: i4 v,h,dc,ddl,ddr,vr,hd,vl,hu:  8% 11%  4%  8% 14% 12% 16% 10% 16%
x264 [info]: i8c dc,h,v,p: 39% 27% 17% 17%
x264 [info]: Weighted P-Frames: Y:1.9% UV:0.9%
x264 [info]: ref P L0: 54.0% 11.5% 14.2%  6.3%  4.2%  3.4%  2.6%  1.8%  1.6%  0.4%  0.0%
x264 [info]: ref B L0: 78.4%  9.8%  4.9%  2.4%  1.9%  1.4%  1.0%  0.3%
x264 [info]: ref B L1: 93.0%  7.0%
x264 [info]: SSIM Mean Y:0.9847808 (18.176db)
x264 [info]: PSNR Mean Y:44.749 U:49.608 V:49.677 Avg:45.487 Global:44.698 kb/s:2192.91
Скриншоты:
-
--
[Профиль] [ЛС]
Кто просматривает тему:

Показать сообщения:    

Текущее время: Сегодня 10:10

Часовой пояс: GMT



Вы не можете начинать темы
Вы не можете отвечать на сообщения
Вы не можете редактировать свои сообщения
Вы не можете удалять свои сообщения
Вы не можете голосовать в опросах
Вы не можете прикреплять файлы к сообщениям
Вы не можете скачивать файлы