21 ночь с Патти / Vingt et une nuits avec Pattie (2015) BDRemux 1080p | А

 
Автор Сообщение

Russian Mafia ®

Пол:

Стаж: 1 год 8 месяцев

Сообщений: 4257



Награды: 10 (Подробнее)

Top Releaser 2 (Количество: 1) Mega Seeder 2 (Количество: 1) За внесенный вклад в развитие сайта (Количество: 1)
Торрент-статистика

Создавать темы 22-Авг-2016 15:20

[Цитировать]

21 ночь с Патти / 21 Nights with Pattie / Vingt et une nuits avec Pattie
Страна: Франция
Производство: Canal+ [fr], Arena Films, Arte / Cofinova 10, Pyramide Productions, CNC
Год выпуска: 2015
Жанр: комедия
Продолжительность: 01:55:10
Режиссеры: Арно Ларьё, Жан-Мари Ларьё
Авторы сценария: Антуан Жаккуд, Арно Ларьё, Жан-Мари Ларьё
В ролях: Изабель Карре, Карин Вьяр, Андре Дюссолье, Серхи Лопес, Лоран Пуатрено, Дени Лаван, Филипп Реббо, Матильда Монньер
Описание: Разгар лета. Парижанка Каролин, 40-летняя глава семейства, приезжает в небольшую деревню на юг Франции. Ей необходимо срочно организовать похороны своей матери, с которой она не особенно общалась. На месте она знакомится с беззаботной Патти, которая любит рассказывать о своих любовных похождениях с местными мужчинами. Пока вся долина готовится к традиционному празднику, тело матери Каролин таинственным образом исчезает...

Перевод: Авторский (одноголосый, закадровый) | Антон Алексеев
Субтитры: французские (SDH)-Качество: BDRemux 1080p
Формат: MKV
Видео кодек: AVC
Аудио кодек: DTS
Видео: 1920x1080 (16:9), 23.976 fps, MPEG-4 AVC ~24.7 Mbps
Аудио №1: 48.0 kHz, Digital Theater Systems МА, 3/2 (L,C,R,l,r) + LFE ch, ~3463 kbps | RUS
Аудио №2: 48.0 kHz, Digital Theater Systems МА, 3/2 (L,C,R,l,r) + LFE ch, ~3430 kbps | FRE
Формат субтитров: UTF-8 Plain Text
Дата премьеры (мир): 28 августа 2015

Релиз от: ylnian

Media Info

General
Уникальный идентификатор : 242392453001435210913654475867319637031 (0xB65B169E4B96263A99A0C956C78B1427)
Полное имя : Vingt.et.une.nuits.avec.Pattie.2015.BDRemux-ylnian.mkv
Формат : Matroska
Версия формата : Version 4 / Version 2
Размер файла : 25,4 Гбайт
Продолжительность : 1 ч. 55 м.
Режим общего битрейта : Переменный
Общий поток : 31,6 Мбит/сек
Название фильма : Vingt.et.une.nuits.avec.Pattie.2015.BDRemux-ylnian
Дата кодирования : UTC 2016-08-18 15:19:29
Программа кодирования : mkvmerge v9.3.1 ('Mask Machine') 64bit
Библиотека кодирования : libebml v1.3.4 + libmatroska v1.4.5
Видео
Идентификатор : 1
Формат : AVC
Формат/Информация : Advanced Video Codec
Профиль формата : Main@L4.1
Параметр CABAC формата : Да
Параметр ReFrames формата : 4 кадра
Параметр GOP формата : M=1, N=12
Идентификатор кодека : V_MPEG4/ISO/AVC
Продолжительность : 1 ч. 55 м.
Вид битрейта : Переменный
Битрейт : 24,7 Мбит/сек
Максимальный битрейт : 39,6 Мбит/сек
Ширина : 1920 пикселей
Высота : 1080 пикселей
Соотношение сторон : 16:9
Режим частоты кадров : Постоянный
Частота кадров : 23,976 (24000/1001) кадра/сек
Цветовое пространство : YUV
Субдискретизация насыщенности : 4:2:0
Битовая глубина : 8 бит
Тип развёртки : Прогрессивная
Бит/(Пиксели*Кадры) : 0.497
Размер потока : 19,9 Гбайт (78%)
Заголовок : 21.Nuits.Avec.Pattie.2015.FRENCH.1080p.BluRay.REMUX.DTS-HDMA.AVC-HUNTER
Язык : French
Default : Да
Forced : Да
Цветовой диапазон : Limited
Основные цвета : BT.709
Характеристики трансфера : BT.709
Коэффициенты матрицы : BT.709
Аудио #1
Идентификатор : 2
Формат : DTS
Формат/Информация : Digital Theater Systems
Профиль формата : MA / Core
Режим : 16
Параметр Endianness формата : Big
Идентификатор кодека : A_DTS
Продолжительность : 1 ч. 55 м.
Вид битрейта : Переменный / Постоянный
Битрейт : 3463 Кбит/сек / 1509 Кбит/сек
Каналы : 6 каналов
Расположение каналов : Front: L C R, Side: L R, LFE
Частота : 48,0 КГц
Частота кадров : 93,750 кадра/сек (512 spf)
Битовая глубина : 24 бит
Метод сжатия : Без потерь / Lossy
Размер потока : 2,79 Гбайт (11%)
Заголовок : AVO (DTS-HD 5.1)
Язык : Russian
Default : Да
Forced : Да
Аудио #2
Идентификатор : 3
Формат : DTS
Формат/Информация : Digital Theater Systems
Профиль формата : MA / Core
Режим : 16
Параметр Endianness формата : Big
Идентификатор кодека : A_DTS
Продолжительность : 1 ч. 55 м.
Вид битрейта : Переменный / Постоянный
Битрейт : 3430 Кбит/сек / 1509 Кбит/сек
Каналы : 6 каналов
Расположение каналов : Front: L C R, Side: L R, LFE
Частота : 48,0 КГц
Частота кадров : 93,750 кадра/сек (512 spf)
Битовая глубина : 24 бит
Метод сжатия : Без потерь / Lossy
Размер потока : 2,76 Гбайт (11%)
Заголовок : DTS-HD 5.1
Язык : French
Default : Нет
Forced : Нет
Текст
Идентификатор : 4
Формат : UTF-8
Идентификатор кодека : S_TEXT/UTF8
Идентификатор кодека/Информация : UTF-8 Plain Text
Продолжительность : 1 ч. 54 м.
Битрейт : 55 бит/сек
Count of elements : 1464
Размер потока : 46,2 Кбайт (0%)
Заголовок : SDH
Язык : French
Default : Нет
Forced : Нет
Меню
00:00:00.000 : en:
00:07:48.050 : en:
00:16:22.648 : en:
00:21:55.605 : en:
00:27:28.605 : en:
00:35:55.570 : en:
00:45:31.895 : en:
00:55:27.323 : en:
01:07:09.275 : en:
01:15:32.528 : en:
01:23:10.026 : en:
01:40:56.967 : en:
01:51:19.714 : en:

Скриншоты

[Профиль] [ЛС]
Кто просматривает тему:

Показать сообщения:    

Текущее время: Сегодня 04:31

Часовой пояс: GMT



Вы не можете начинать темы
Вы не можете отвечать на сообщения
Вы не можете редактировать свои сообщения
Вы не можете удалять свои сообщения
Вы не можете голосовать в опросах
Вы не можете прикреплять файлы к сообщениям
Вы не можете скачивать файлы