2036, происхождение неизвестно / 2036 Origin Unknown (2018) WEB-DLRip-AVC | L2

 
Автор Сообщение

Swager ®

Пол:

Стаж: 2 года 11 месяцев

Сообщений: 1675



Награды: 4 (Подробнее)

Mega Seeder 1 (Количество: 1) За внесенный вклад в развитие сайта (Количество: 1) Top Releaser 2 (Количество: 1)
Торрент-статистика

Создавать темы 14-Июн-2018 08:03

[Цитировать]

Название: 2036, происхождение неизвестно
Оригинальное название: 2036 Origin Unknown
Год выхода: 2018
Жанр: фантастика
Режиссер: Хасраф Дулул
В ролях: Кэти Сакхофф, Джули Кокс, Стивен Кри, Рэй Фиарон, Изабелль Марлоу, Джо Уолтерс, Дэвид К.С. Тсе
О фильме: Космическая экспедиция обнаруживает на поверхности Марса нечто, способное изменить жизнь человечества навсегда. Но вместо того, чтобы помочь людям раскрыть марсианскую тайну, искусственный интеллект на борту корабля берёт управление на себя.

Страна: Великобритания
Студия: Head Gear Films, Metrol Technology, Origin Unknown Films
Продолжительность: 01:34:34
Перевод: Любительский (двухголосый закадровый) | HiWay Grope
Формат: MKV
Качество: WEB-DLRip-AVC
Видео: MPEG-4 AVC, 1024x432 (2.40:1), 24.000 fps, 1807 Kbps, 0.170 bit/pixel
Аудио #01: 48 kHz, AC3, 5.1, 384 Kbps | RUS |
Аудио #02: 48 kHz, AC3, 5.1, 384 Kbps | Оригинал | ENG |
Субтитры: Aнглийские
Без какой-либо рекламы.

ОтчетМедиаИнфо

General
Unique ID : 190192418340125704721812150999222804341 (0x8F15BA34C476E01F8EBAF5EECA4B5F75)
Complete name : D:2036.Origin Unknown.2018.WEB-DLRip.AVC.ExKinoRay.mkv
Format : Matroska
Format version : Version 2
File size : 1.70 GiB
Duration : 1 h 34 min
Overall bit rate : 2 573 kb/s
Movie name : 2036 Origin Unknown 2018 from ExKinoRay
Encoded date : UTC 2018-06-14 02:58:49
Writing application : mkvmerge v5.6.0 ('Kenya Kane') built on May 27 2012 16:44:04
Writing library : libebml v1.2.3 + libmatroska v1.3.0
Video
ID : 1
Format : AVC
Format/Info : Advanced Video Codec
Format profile : High@L4.1
Format settings, CABAC : Yes
Format settings, ReFrames : 11 frames
Codec ID : V_MPEG4/ISO/AVC
Duration : 1 h 34 min
Bit rate : 1 807 kb/s
Width : 1 024 pixels
Height : 432 pixels
Display aspect ratio : 2.40:1
Frame rate mode : Constant
Frame rate : 24.000 FPS
Color space : YUV
Chroma subsampling : 4:2:0
Bit depth : 8 bits
Scan type : Progressive
Bits/(Pixel*Frame) : 0.170
Stream size : 1.16 GiB (68%)
Title : Enigma
Writing library : x264 core 152 r2851 ba24899
Encoding settings : cabac=1 / ref=11 / deblock=1:-2:-2 / analyse=0x3:0x113 / me=umh / subme=10 / psy=1 / psy_rd=1.00:0.10 / mixed_ref=1 / me_range=32 / chroma_me=1 / trellis=2 / 8x8dct=1 / cqm=0 / deadzone=21,11 / fast_pskip=0 / chroma_qp_offset=-3 / threads=12 / lookahead_threads=3 / sliced_threads=0 / nr=0 / decimate=0 / interlaced=0 / bluray_compat=0 / constrained_intra=0 / bframes=10 / b_pyramid=2 / b_adapt=2 / b_bias=0 / direct=3 / weightb=1 / open_gop=0 / weightp=2 / keyint=240 / keyint_min=24 / scenecut=40 / intra_refresh=0 / rc_lookahead=40 / rc=2pass / mbtree=0 / bitrate=1807 / ratetol=1.0 / qcomp=0.65 / qpmin=0 / qpmax=51 / qpstep=4 / cplxblur=20.0 / qblur=0.5 / vbv_maxrate=50000 / vbv_bufsize=62500 / nal_hrd=none / filler=0 / ip_ratio=1.30 / pb_ratio=1.20 / aq=2:0.90
Default : Yes
Forced : No
Color range : Limited
Color primaries : BT.709
Transfer characteristics : BT.709
Matrix coefficients : BT.709
Audio #1
ID : 2
Format : AC-3
Format/Info : Audio Coding 3
Mode extension : CM (complete main)
Format settings, Endianness : Big
Codec ID : A_AC3
Duration : 1 h 34 min
Bit rate mode : Constant
Bit rate : 384 kb/s
Channel(s) : 6 channels
Channel positions : Front: L C R, Side: L R, LFE
Sampling rate : 48.0 kHz
Frame rate : 31.250 FPS (1536 spf)
Compression mode : Lossy
Stream size : 260 MiB (15%)
Title : DVO | HiWay Grope
Language : Russian
Default : Yes
Forced : No
Audio #2
ID : 3
Format : AC-3
Format/Info : Audio Coding 3
Mode extension : CM (complete main)
Format settings, Endianness : Big
Codec ID : A_AC3
Duration : 1 h 34 min
Bit rate mode : Constant
Bit rate : 384 kb/s
Channel(s) : 6 channels
Channel positions : Front: L C R, Side: L R, LFE
Sampling rate : 48.0 kHz
Frame rate : 31.250 FPS (1536 spf)
Compression mode : Lossy
Stream size : 260 MiB (15%)
Language : English
Default : No
Forced : No
Text
ID : 4
Format : UTF-8
Codec ID : S_TEXT/UTF8
Codec ID/Info : UTF-8 Plain Text
Language : English
Default : No
Forced : No
Menu
00:00:00.000 : en:Chapter 1
00:10:41.641 : en:Chapter 2
00:20:09.208 : en:Chapter 3
00:31:32.891 : en:Chapter 4
00:40:20.418 : en:Chapter 5
00:49:58.996 : en:Chapter 6
01:01:16.673 : en:Chapter 7
01:11:01.257 : en:Chapter 8
01:20:10.806 : en:Chapter 9
01:32:15.530 : en:Chapter 10
[Профиль] [ЛС]
Кто просматривает тему:

Форум Тема Автор Размер
Фильмы 2018 года 2036, происхождение неизвестно / 2036 Origin Unknown (2018) BDRip | HDRezka Studio BOSS 1.46 GB
Показать сообщения:    

Текущее время: Сегодня 17:09

Часовой пояс: GMT



Вы не можете начинать темы
Вы не можете отвечать на сообщения
Вы не можете редактировать свои сообщения
Вы не можете удалять свои сообщения
Вы не можете голосовать в опросах
Вы не можете прикреплять файлы к сообщениям
Вы не можете скачивать файлы