2019: После падения Нью-Йорка / 2019 - Dopo la caduta di New York (1983) BDRip 1080p | L1

 
Автор Сообщение

Swager ®

Пол:

Стаж: 2 года

Сообщений: 981



Награды: 3 (Подробнее)

Mega Seeder 2 (Количество: 1) Mega Seeder 1 (Количество: 1) Top Releaser 2 (Количество: 1)
Торрент-статистика

Создавать темы 07-Окт-2017 10:21

[Цитировать]

2019: После падения Нью-Йорка2019 - Dopo la caduta di New York«In The Year 2019, The Future Depends on One Man»- Страна: Италия, Франция
Жанр: ужасы, фантастика, боевик
Год выпуска: 1983
Продолжительность: 01:35:47
Перевод: Любительский (одноголосый)
Субтитры: английские.-Режиссер: Серджо Мартино / Sergio Martino-В ролях: Майкл Сопкив (Parsifal), Валентина Монньер (Giara), Анна Канакис (Eurac Officer Ania), Романо Пуппо (Ratchet), Паоло Мария Скалондро (Bronx), Луис Экклесия (Shorty), Эдмунд Пурдом (President of the Pan American Confederacy), Серж Феллар (Eurac Commander), Тициана Фиби, Харукико Яманоути (Rat Eater King), Алессандра Тани, Jacques Stani (Eurac Officer)-Описание: Идет двадцатый год после ядерной войны, развязанной могущественным афро-евро-азиатским союзом против США. Из-за радиоактивного заражения все женщины Земли потеряли репродуктивную функцию, а часть населения превратилась в мутантов. Войска союза, объявившего себя победителем, проводят регулярные рейды для забора генетического материала, а остатки штатовского командования, мечтают о реванше и знают о существовании единственной женщины, способной к оплодотворению.-MPAA: R - Лицам до 17 лет обязательно присутствие взрослого-Семпл- -
Качество: BDRip 1080p
Контейнер: MKV
Видео: AVC, 1920x1040 (1.85:1), 8281 kbps, 23,976 fps, 0,173 bpp
Аудио №1: русский / AC3 / 2.0 / 48 kHz / 192 kbps / VO
Аудио №2: английский / AC3 / 2.0 / 48 kHz / 192 kbps-

Media Info

Формат : Matroska
Версия формата : Version 2
Размер файла : 5,92 Гбайт
Продолжительность : 1 ч. 35 м.
Общий поток : 8842 Кбит/сек
Название фильма : = 2019: После падения Нью-Йорка / 2019 - Dopo la caduta di New York (1983) BDRip 1080p - KORSAR =
Дата кодирования : UTC 2017-10-04 21:03:42
Программа кодирования : mkvmerge v5.8.0 ('No Sleep / Pillow') built on Sep 2 2012 15:37:04
Библиотека кодирования : libebml v1.2.3 + libmatroska v1.3.0
Attachment : Yes
Видео
Идентификатор : 1
Формат : AVC
Формат/Информация : Advanced Video Codec
Профиль формата : High@L4.1
Параметр CABAC формата : Да
Параметр ReFrames формата : 4 кадра
Идентификатор кодека : V_MPEG4/ISO/AVC
Продолжительность : 1 ч. 35 м.
Битрейт : 8282 Кбит/сек
Ширина : 1920 пикселей
Высота : 1040 пикселей
Соотношение сторон : 1,85:1
Режим частоты кадров : Постоянный
Частота кадров : 23,976 кадра/сек
Цветовое пространство : YUV
Субдискретизация насыщенности : 4:2:0
Битовая глубина : 8 бит
Тип развёртки : Прогрессивная
Бит/(Пиксели*Кадры) : 0.173
Размер потока : 5,54 Гбайт (94%)
Заголовок : 2019: После падения Нью-Йорка / 2019 - Dopo la caduta di New York (1983) BDRip 1080p - KORSAR
Библиотека кодирования : x264 core 148 r2744kMod b97ae06
Настройки программы : cabac=1 / ref=4 / deblock=1:-3:-3 / analyse=0x3:0x113 / me=umh / subme=11 / psy=1 / fade_compensate=0.00 / psy_rd=1.00:0.00 / mixed_ref=1 / me_range=32 / chroma_me=1 / trellis=2 / 8x8dct=1 / cqm=0 / deadzone=21,11 / fast_pskip=0 / chroma_qp_offset=-2 / threads=12 / lookahead_threads=2 / sliced_threads=0 / nr=0 / decimate=1 / interlaced=0 / bluray_compat=0 / constrained_intra=0 / bframes=8 / b_pyramid=2 / b_adapt=2 / b_bias=0 / direct=3 / weightb=1 / open_gop=0 / weightp=2 / keyint=240 / keyint_min=23 / scenecut=40 / intra_refresh=0 / rc_lookahead=60 / rc=crf / mbtree=0 / crf=20.0000 / qcomp=0.60 / qpmin=0 / qpmax=69 / qpstep=4 / vbv_maxrate=50000 / vbv_bufsize=62500 / crf_max=0.0 / nal_hrd=none / filler=0 / ip_ratio=1.40 / pb_ratio=1.30 / aq=3:0.70
Язык : English
Default : Да
Forced : Нет
Основные цвета : BT.709
Характеристики трансфера : BT.709
Коэффициенты матрицы : BT.709
Аудио #1
Идентификатор : 2
Формат : AC-3
Формат/Информация : Audio Coding 3
Расширение режима : CM (complete main)
Параметр Endianness формата : Big
Идентификатор кодека : A_AC3
Продолжительность : 1 ч. 35 м.
Вид битрейта : Постоянный
Битрейт : 192 Кбит/сек
Каналы : 2 канала
Расположение каналов : Front: L R
Частота : 48,0 КГц
Битовая глубина : 16 бит
Метод сжатия : С потерями
Размер потока : 132 Мбайт (2%)
Заголовок : VO
Язык : Russian
Default : Да
Forced : Нет
Аудио #2
Идентификатор : 3
Формат : AC-3
Формат/Информация : Audio Coding 3
Расширение режима : CM (complete main)
Параметр Endianness формата : Big
Идентификатор кодека : A_AC3
Продолжительность : 1 ч. 35 м.
Вид битрейта : Постоянный
Битрейт : 192 Кбит/сек
Каналы : 2 канала
Расположение каналов : Front: L R
Частота : 48,0 КГц
Битовая глубина : 16 бит
Метод сжатия : С потерями
Размер потока : 132 Мбайт (2%)
Язык : English
Default : Нет
Forced : Нет
Текст
Идентификатор : 4
Формат : UTF-8
Идентификатор кодека : S_TEXT/UTF8
Идентификатор кодека/Информация : UTF-8 Plain Text
Язык : English
Default : Нет
Forced : Нет
-

Скриншоты


[Профиль] [ЛС]
Показать сообщения:    

Текущее время: Сегодня 19:06

Часовой пояс: GMT



Вы не можете начинать темы
Вы не можете отвечать на сообщения
Вы не можете редактировать свои сообщения
Вы не можете удалять свои сообщения
Вы не можете голосовать в опросах
Вы не можете прикреплять файлы к сообщениям
Вы не можете скачивать файлы