2019: После падения Нью-Йорка / 2019 - Dopo la caduta di New York (1983) BDRemux 1080р | L1

 
Author Message

BOSS ®

Gender:

Longevity: 4 years 9 months

Posts: 14129

Location: ODESSA



: 22 ()

Mega Seeder 1 (1) Top Seeder 2 (1) Top Releaser 4 (1)
Торрент-статистика

Post 28-Sep-2017 12:52

[Quote]

Информация о фильме
Название: 2019: После падения Нью-Йорка
Оригинальное название: 2019 - Dopo la caduta di New York
Год выхода: 1983
Жанр: ужасы, фантастика, боевик
Режиссер: Серджио Мартино
В ролях: Майкл Сопкив, Валентина Монньер, Анна Канакис, Романо Пуппо, Паоло Мария Скалондро, Луис Экклесия, Эдмунд Пурдом, Серж Феллар, Тициана Фиби, Харукико Яманоу
О фильме: Идет двадцатый год после ядерной войны, развязанной могущественным афро-евро-азиатским союзом против США. Из-за радиоактивного заражения все женщины Земли потеряли репродуктивную функцию, а часть населения превратилась в мутантов. Войска союза, объявившего себя победителем, проводят регулярные рейды для забора генетического материала, а остатки штатовского командования, мечтают о реванше и знают о существовании единственной женщины, способной к оплодотворению.
В Нью-Йорк, на ее поиски, отправляют самого крутого гладиатора современности, Парсифаля, с двумя помощниками. Их миссия — найти женщину, и вернуться с ней на базу, чтобы на космолете улететь на Альфа-Центавру для продолжения рода человеческого, но является ли данное задание выполнимым?…

Страна: Италия, Франция
Продолжительность: 01:35:46
Перевод: Любительский (одноголосый закадровый)
Субтитры: английские
Оригинальная аудиодорожка: английский
Файл
Качество: BDRemux 1080р
Видео: 1920x1080 / MPEG-4 AVC Video / 34999 kbps / 1080p / 23.976 fps / 16:9 / High Profile 4.1
Аудио 1: Русский / AC3 / 2.0 / 192 kbps / 48 kHz (VO)
Аудио 2: English / FLAC / 2.0 / ~1159 kbps / 48 kHz (Original)

Скриншоты

MediaInfo

Общее
Уникальный идентификатор : 211105285656251900318925991321933974376
(0x9ED1662BD5F05574ABDE7F22B4B00B68)
Полное имя : D:2019.After.The.Fall.Of.New.York.1983.BDRemux.1080p.Rus.Eng.mkv
Формат : Matroska
Версия формата : Version 4 / Version 2
Размер файла : 24,2 Гбайт
Продолжительность : 1 ч. 35 м.
Режим общего битрейта : Переменный
Общий поток : 36,1 Мбит/сек
Название фильма : 2019 - After the fall Of New York
Дата кодирования : UTC 2017-05-04 10:00:59
Программа кодирования : mkvmerge v9.8.0 ('Kuglblids') 32bit
Библиотека кодирования : libebml v1.3.4 + libmatroska v1.4.5
Видео
Идентификатор : 1
Формат : AVC
Формат/Информация : Advanced Video Codec
Профиль формата : High@L4.1
Параметр CABAC формата : Да
Параметр ReFrames формата : 4 кадра
Идентификатор кодека : V_MPEG4/ISO/AVC
Продолжительность : 1 ч. 35 м.
Вид битрейта : Постоянный
Битрейт : 35,0 Мбит/сек / 35,0 Мбит/сек
Ширина : 1920 пикселей
Высота : 1080 пикселей
Соотношение сторон : 16:9
Режим частоты кадров : Постоянный
Частота кадров : 23,976 (24000/1001) кадра/сек
Стандарт вещания : Component
Цветовое пространство : YUV
Субдискретизация насыщенности : 4:2:0
Битовая глубина : 8 бит
Тип развёртки : Прогрессивная
Бит/(Пиксели*Кадры) : 0.704
Размер потока : 23,3 Гбайт (96%)
Заголовок : 2019 - Dopo la caduta di New York 1983 1080p GBR Blu-ray AVC LPCM
2.0-VEXHD
Библиотека кодирования : x264 core 144
Настройки программы : cabac=1 / ref=4 / deblock=1:0:0 / analyse=0x3:0x113 / me=hex / subme=7
/ psy=1 / psy_rd=1.00:0.00 / mixed_ref=1 / me_range=16 / chroma_me=1 / trellis=1 / 8x8dct=1 / cqm=1 /
deadzone=21,11 / fast_pskip=1 / chroma_qp_offset=-2 / threads=6 / lookahead_threads=1 / sliced_threads=0 /
slices=4 / nr=0 / decimate=1 / interlaced=0 / minigop=1 / stitchable=1 / constrained_intra=0 / bframes=2 /
b_pyramid=0 / b_adapt=1 / b_bias=0 / direct=1 / weightb=1 / open_gop=1 / weightp=1 / keyint=24 / keyint_min=1 /
scenecut=40 / intra_refresh=0 / rc_lookahead=24 / rc=cbr / mbtree=1 / bitrate=35000 / ratetol=1.0 / qcomp=0.60 /
qpmin=3 / qpmax=69 / qpstep=4 / vbv_maxrate=35000 / vbv_bufsize=30000 / nal_hrd=cbr / filler=1 / ip_ratio=1.40 /
aq=1:1.00
Default : Нет
Forced : Нет
Цветовой диапазон : Limited
Основные цвета : BT.709
Характеристики трансфера : BT.709
Коэффициенты матрицы : BT.709
Аудио #1
Идентификатор : 2
Формат : AC-3
Формат/Информация : Audio Coding 3
Расширение режима : CM (complete main)
Параметр Endianness формата : Big
Идентификатор кодека : A_AC3
Продолжительность : 1 ч. 35 м.
Вид битрейта : Постоянный
Битрейт : 192 Кбит/сек
Каналы : 2 канала
Расположение каналов : Front: L R
Частота : 48,0 КГц
Частота кадров : 31,250 кадров/сек (1536 spf)
Битовая глубина : 16 бит
Метод сжатия : С потерями
Размер потока : 132 Мбайт (1%)
Заголовок : VO AC3 2.0 192 kbps
Язык : Russian
Default : Нет
Forced : Нет
Аудио #2
Идентификатор : 3
Формат : FLAC
Формат/Информация : Free Lossless Audio Codec
Идентификатор кодека : A_FLAC
Продолжительность : 1 ч. 35 м.
Вид битрейта : Переменный
Битрейт : 1159 Кбит/сек
Каналы : 2 канала
Расположение каналов : Front: L R
Частота : 48,0 КГц
Частота кадров : 11,719 кадров/сек (4096 spf)
Битовая глубина : 24 бит
Размер потока : 794 Мбайт (3%)
Заголовок : Original FLAC 2.0 ~1159kbps
Библиотека кодирования : libFLAC 1.2.1 (UTC 2007-09-17)
Язык : English
Default : Нет
Forced : Нет
Текст
Идентификатор : 4
Формат : UTF-8
Идентификатор кодека : S_TEXT/UTF8
Идентификатор кодека/Информация : UTF-8 Plain Text
Продолжительность : 1 ч. 31 м.
Битрейт : 36 бит/сек
Count of elements : 794
Размер потока : 24,5 Кбайт (0%)
Язык : English
Default : Нет
Forced : Нет
Меню
00:00:00.000 : en:00:00:00.000
00:07:01.379 : en:00:07:01.379
00:16:10.970 : en:00:16:10.970
00:24:51.990 : en:00:24:51.990
00:37:15.984 : en:00:37:15.984
00:47:03.320 : en:00:47:03.320
00:58:17.327 : en:00:58:17.327
01:11:28.284 : en:01:11:28.284
01:20:49.845 : en:01:20:49.845
01:30:25.170 : en:01:30:25.170
[Profile] [PM]
Display posts from previous:    

The time now is: Today 15:58

All times are GMT



You cannot post new topics in this forum
You cannot reply to topics in this forum
You cannot edit your posts in this forum
You cannot delete your posts in this forum
You cannot vote in polls in this forum
You cannot attach files in this forum
You cannot download files in this forum