(Italo-Disco, Disco) [CD] VA - I Love ZYX Italo Disco Collection 17 (3CD) - 2014, FLAC (image+.cue), lossless

 
Автор Сообщение

sergej644 ®

Пол:

Стаж: 4 года 11 месяцев

Сообщений: 6041

Откуда: Soviet Union



Награды: Нет

Торрент-статистика

Создавать темы 23-Май-2015 07:46

[Цитировать]

Various Artists - I Love ZYX Italo Disco Collection 17 (3CD)-

Жанр: Italo-Disco, Disco
Носитель: CD
Страна-производитель диска: Germany
Год выпуска диска: 2014
Дата выхода оригинального издания: 2014
Тип издания: 3CD, Compilation Box Set
Издатель (лейбл): ZYX Music
Серия: I Love ZYX Italo Disco Collection - 17
Каталожный номер: ZYX 82741-2
Аудиокодек: FLAC (*.flac)
Тип рипа: image+.cue
Битрейт аудио: lossless
Продолжительность: 3 ~ 03:28:30
Источник (релизер): SergeyJD
Наличие сканов в содержимом раздачи: да, PNG 600dpi-

Disc 1 (01:11:59)

Треклист
01. Miko Mission - Two For Love (Mozzart Mix) [05:14]
02. Tom - Give Me Just A Little Time (Maxi Version) [05:53]
03. Laserdance - Battle Cry (Space Mix) [06:27]
04. Morgana - Ready For Love (Vocal Version) [07:39]
05. Scotch - Money Runner (Extended Version) [06:19]
06. Tony Moore D.J. - Tonight (Vocal Version) [06:57]
07. Raffalli - Don't Stop (Vocal Version) [06:14]
08. Humphrey Robertson - Don't Stop Loving Me (Disco Mix) [05:42]
09. Fun Fun - Baila Bolero (Bolero Dance Mix) [09:26]
10. Fancy - China Blue (Blue Remix) [06:29]
11. Timerider - Space Iwan [05:35]

Лог EAC

Exact Audio Copy V1.0 beta 6 from 9. April 2015
Отчёт EAC об извлечении, выполненном 22. мая 2015, 22:08
Various Artists / I Love ZYX Italo Disco Collection 17 (CD 1)
Дисковод: PIONEER BD-RW BDR-206 Adapter: 1 ID: 1
Режим чтения : ДостоверностьИспользование точного потока : ДаОтключение кэша аудио : ДаИспользование указателей C2 : Нет
Коррекция смещения при чтении : 667Способность читать области Lead-in и Lead-out : НетЗаполнение пропущенных сэмплов тишиной : ДаУдаление блоков с тишиной в начале и конце : НетПри вычислениях CRC использовались нулевые сэмплы : ДаИнтерфейс : Встроенный Win32-интерфейс для Win NT/2000
Выходной формат : Пользовательский кодировщикВыбранный битрейт : 1024 kBit/sКачество : ВысокийДобавление ID3-тега : НетУтилита сжатия : C:\Program Files (x86)\Exact Audio Copy\FLAC\FLAC.EXEДополнительные параметры : -T "COMMENT=Ripped by SergeyJD"-8 -V -T "ARTIST=%artist%" -T "TITLE=%title%" -T "ALBUM=%albumtitle%" -T "DATE=%year%" -T "TRACKNUMBER=%tracknr%" -T "GENRE=%genre%" -T "COMMENT=%comment%" -T "BAND=%albuminterpret%" -T "ALBUMARTIST=%albuminterpret%" -T "COMPOSER=%composer%" %haslyrics%--tag-from-file=LYRICS="%lyricsfile%"%haslyrics% -T "DISCNUMBER=%cdnumber%" -T "TOTALDISCS=%totalcds%" -T "TOTALTRACKS=%numtracks%" %hascover%--picture="%coverfile%"%hascover% %source% -o %dest%
TOC извлечённого CD
Трек | Старт | Длительность | Начальный сектор | Конечный сектор --------------------------------------------------------------------- 1 | 0:00.00 | 5:14.02 | 0 | 23551 2 | 5:14.02 | 5:53.62 | 23552 | 50088 3 | 11:07.64 | 6:27.51 | 50089 | 79164 4 | 17:35.40 | 7:39.06 | 79165 | 113595 5 | 25:14.46 | 6:19.73 | 113596 | 142093 6 | 31:34.44 | 6:57.02 | 142094 | 173370 7 | 38:31.46 | 6:14.54 | 173371 | 201474 8 | 44:46.25 | 5:42.08 | 201475 | 227132 9 | 50:28.33 | 9:26.20 | 227133 | 269602 10 | 59:54.53 | 6:29.03 | 269603 | 298780 11 | 66:23.56 | 5:35.68 | 298781 | 323973
Характеристики диапазона извлечения и сообщения об ошибках
Выбранный диапазон
Имя файла D:\РАЗДАЧИ!!!!\VA - I Love ZYX Italo Disco Collection 17 (3CD ZYX 82741-2) - 2014\Disc 1\Various Artists - I Love ZYX Italo Disco Collection 17 (CD 1).wav
Пиковый уровень 97.6 % Скорость извлечения 2.1 X Качество диапазона 99.9 % CRC теста 1695C810 CRC копии 1695C810 Копирование... OK
Ошибок не произошло
AccurateRip: сводка
Трек 1 : извлечено точно (доверие 3) [9C49EB1B] (AR v2)Трек 2 : извлечено точно (доверие 3) [16BA33EE] (AR v2)Трек 3 : извлечено точно (доверие 3) [E82BDEB6] (AR v2)Трек 4 : извлечено точно (доверие 3) [20C8FFEA] (AR v2)Трек 5 : извлечено точно (доверие 3) [38603057] (AR v2)Трек 6 : извлечено точно (доверие 3) [9E11ADA5] (AR v2)Трек 7 : извлечено точно (доверие 3) [ACED1E2A] (AR v2)Трек 8 : извлечено точно (доверие 3) [B56A0E62] (AR v2)Трек 9 : извлечено точно (доверие 3) [A8F5C6CD] (AR v2)Трек 10 : извлечено точно (доверие 3) [D1C7984B] (AR v2)Трек 11 : извлечено точно (доверие 3) [6BF1CECA] (AR v2)
Все треки извлечены точно
Конец отчёта
---- CUETools DB Plugin V2.1.6
[CTDB TOCID: 9XlU5tKC7_Qy14JImjiRqVEB5lE-] foundSubmit result: already submittedTrack | CTDB Status 1 | (4/4) Accurately ripped 2 | (4/4) Accurately ripped 3 | (4/4) Accurately ripped 4 | (4/4) Accurately ripped 5 | (4/4) Accurately ripped 6 | (4/4) Accurately ripped 7 | (4/4) Accurately ripped 8 | (4/4) Accurately ripped 9 | (4/4) Accurately ripped 10 | (4/4) Accurately ripped 11 | (4/4) Accurately ripped
==== Контрольная сумма отчёта A69EC75B002A83ECC9FAA6E5FDAB09AFB7F1055F81EFB8DC023001E8F7CA90E1 ====

Содержание индексной карты (.CUE)

REM GENRE "Italo-Disco, Disco"REM DATE 2014REM DISCID AA10DF0BREM COMMENT "ExactAudioCopy v1.0b6"PERFORMER "Various Artists"TITLE "I Love ZYX Italo Disco Collection 17 (CD 1)"FILE "Various Artists - I Love ZYX Italo Disco Collection 17 (CD 1).flac" WAVE TRACK 01 AUDIO TITLE "Two For Love (Mozzart Mix)" PERFORMER "Miko Mission" FLAGS DCP INDEX 01 00:00:00 TRACK 02 AUDIO TITLE "Give Me Just A Little Time (Maxi Version)" PERFORMER "Tom" FLAGS DCP INDEX 00 05:13:11 INDEX 01 05:14:02 TRACK 03 AUDIO TITLE "Battle Cry (Space Mix)" PERFORMER "Laserdance" FLAGS DCP INDEX 00 11:06:73 INDEX 01 11:07:64 TRACK 04 AUDIO TITLE "Ready For Love (Vocal Version)" PERFORMER "Morgana" FLAGS DCP INDEX 00 17:34:49 INDEX 01 17:35:40 TRACK 05 AUDIO TITLE "Money Runner (Extended Version)" PERFORMER "Scotch" FLAGS DCP INDEX 01 25:14:46 TRACK 06 AUDIO TITLE "Tonight (Vocal Version)" PERFORMER "Tony Moore D.J." FLAGS DCP INDEX 00 31:33:44 INDEX 01 31:34:44 TRACK 07 AUDIO TITLE "Don't Stop (Vocal Version)" PERFORMER "Raffalli" FLAGS DCP INDEX 01 38:31:46 TRACK 08 AUDIO TITLE "Don't Stop Loving Me (Disco Mix)" PERFORMER "Humphrey Robertson" FLAGS DCP INDEX 00 44:45:49 INDEX 01 44:46:25 TRACK 09 AUDIO TITLE "Baila Bolero (Bolero Dance Mix)" PERFORMER "Fun Fun" FLAGS DCP INDEX 00 50:27:42 INDEX 01 50:28:33 TRACK 10 AUDIO TITLE "China Blue (Blue Remix)" PERFORMER "Fancy" FLAGS DCP INDEX 00 59:53:53 INDEX 01 59:54:53 TRACK 11 AUDIO TITLE "Space Iwan" PERFORMER "Timerider" FLAGS DCP INDEX 01 66:23:56

Лог auCDtect Task Manager

-----------------------
DON'T MODIFY THIS FILE
-----------------------
PERFORMER: auCDtect Task Manager, ver. 1.5.1RC6 build 1.5.1.7Copyright (c) 2008-2010 y-soft. All rights reservedhttp://y-soft.org
ANALYZER: auCDtect: CD records authenticity detector, version 0.8.2Copyright (c) 2004 Oleg Berngardt. All rights reserved.Copyright (c) 2004 Alexander Djourik. All rights reserved.
FILE: Various Artists - I Love ZYX Italo Disco Collection 17 (CD 1).flac Size: 555963949 Hash: 94FB546F7A2A75366BE9DAAAFF43CEBE Accuracy: -m0 Conclusion: CDDA 100% Signature: C760F0D70340FB1981DD6FC37DB7C86D47A4A072

Замер динамического диапазона (DR)

foobar2000 1.2.3 / Замер динамического диапазона (DR) 1.1.1Дата отчёта: 2015-05-23 09:12:42
--------------------------------------------------------------------------------Статистика для: 09-Baila Bolero (Bolero Dance Mix)Количество сэмплов: 24972360Продолжительность: 9:26--------------------------------------------------------------------------------
Левый Правый
Пики: -0.21 дБ --- -0.21 дБСредний RMS: -10.30 дБ --- -10.29 дБDR канала: 8.37 дБ --- 8.42 дБ--------------------------------------------------------------------------------
Реальные значения DR: DR8
Частота: 44100 ГцКаналов: 2Разрядность: 16Битрейт: 1030 кбит/сКодек: FLAC================================================================================--------------------------------------------------------------------------------Статистика для: 08-Don't Stop Loving Me (Disco Mix)Количество сэмплов: 15086904Продолжительность: 5:42--------------------------------------------------------------------------------
Левый Правый
Пики: -0.21 дБ --- -0.21 дБСредний RMS: -10.22 дБ --- -10.22 дБDR канала: 8.73 дБ --- 8.84 дБ--------------------------------------------------------------------------------
Реальные значения DR: DR9
Частота: 44100 ГцКаналов: 2Разрядность: 16Битрейт: 1030 кбит/сКодек: FLAC================================================================================--------------------------------------------------------------------------------Статистика для: 03-Battle Cry (Space Mix)Количество сэмплов: 17096688Продолжительность: 6:28--------------------------------------------------------------------------------
Левый Правый
Пики: -0.21 дБ --- -0.21 дБСредний RMS: -10.32 дБ --- -10.70 дБDR канала: 8.94 дБ --- 9.23 дБ--------------------------------------------------------------------------------
Реальные значения DR: DR9
Частота: 44100 ГцКаналов: 2Разрядность: 16Битрейт: 1030 кбит/сКодек: FLAC================================================================================--------------------------------------------------------------------------------Анализ: Miko Mission / I Love ZYX Italo Disco Collection 17 (CD 1) (1) Morgana / I Love ZYX Italo Disco Collection 17 (CD 1) (2) Raffalli / I Love ZYX Italo Disco Collection 17 (CD 1) (3)--------------------------------------------------------------------------------
DR Пики RMS Продолжительность трека--------------------------------------------------------------------------------DR8 -0.21 дБ -9.25 дБ 5:14 01-Two For Love (Mozzart Mix)DR9 -0.21 дБ -10.42 дБ 7:39 04-Ready For Love (Vocal Version)DR9 -0.21 дБ -10.10 дБ 6:15 07-Don't Stop (Vocal Version)--------------------------------------------------------------------------------
Количество треков: 3Реальные значения DR: DR9
Частота: 44100 ГцКаналов: 2Разрядность: 16Битрейт: 1030 кбит/сКодек: FLAC================================================================================
--------------------------------------------------------------------------------Анализ: Scotch / I Love ZYX Italo Disco Collection 17 (CD 1) (1) Timerider / I Love ZYX Italo Disco Collection 17 (CD 1) (2)--------------------------------------------------------------------------------
DR Пики RMS Продолжительность трека--------------------------------------------------------------------------------DR9 -0.21 дБ -10.47 дБ 6:20 05-Money Runner (Extended Version)DR9 -0.21 дБ -9.92 дБ 5:36 11-Space Iwan--------------------------------------------------------------------------------
Количество треков: 2Реальные значения DR: DR9
Частота: 44100 ГцКаналов: 2Разрядность: 16Битрейт: 1030 кбит/сКодек: FLAC================================================================================
--------------------------------------------------------------------------------Анализ: Tom / I Love ZYX Italo Disco Collection 17 (CD 1) (1) Tony Moore D.J. / I Love ZYX Italo Disco Collection 17 (CD 1) (2)--------------------------------------------------------------------------------
DR Пики RMS Продолжительность трека--------------------------------------------------------------------------------DR8 -0.21 дБ -9.57 дБ 5:54 02-Give Me Just A Little Time (Maxi Version)DR8 -0.21 дБ -9.31 дБ 6:57 06-Tonight (Vocal Version)--------------------------------------------------------------------------------
Количество треков: 2Реальные значения DR: DR8
Частота: 44100 ГцКаналов: 2Разрядность: 16Битрейт: 1030 кбит/сКодек: FLAC================================================================================================================================================================
foobar2000 1.2.3 / Замер динамического диапазона (DR) 1.1.1Дата отчёта: 2015-05-23 09:12:40
--------------------------------------------------------------------------------Статистика для: 10-China Blue (Blue Remix)Количество сэмплов: 17156664Продолжительность: 6:29--------------------------------------------------------------------------------
Левый Правый
Пики: -0.21 дБ --- -0.21 дБСредний RMS: -9.82 дБ --- -9.91 дБDR канала: 8.45 дБ --- 8.41 дБ--------------------------------------------------------------------------------
Реальные значения DR: DR8
Частота: 44100 ГцКаналов: 2Разрядность: 16Битрейт: 1030 кбит/сКодек: FLAC================================================================================

Disc 2 (01:07:48)

Треклист
01. Olivia Gray - In The Morning Light (Dance Version) [06:01]
02. G.P. Universe - Let Me Love You [05:14]
03. Tommy - One Night (Disco Tech Remix) [08:09]
04. Bad Boys Blue - Mon Amie (Extended Remix) [07:42]
05. Sharon - Touch Me Baby (Special Disco Version) [05:28]
06. Proxyon - Space Warriors [05:01]
07. Ringo - Imagination [04:53]
08. Miko Mission - How Old Are You (Special Remix) [06:05]
09. Digitronic - Disco Night (Maxi Version) [06:39]
10. Silent Circle - What A Shame (Retro Remix) [06:34]
11. My Mine - Zorro [05:57]

Лог EAC

Exact Audio Copy V1.0 beta 6 from 9. April 2015
Отчёт EAC об извлечении, выполненном 22. мая 2015, 22:35
Various Artists / I Love ZYX Italo Disco Collection 17 (CD 2)
Дисковод: PIONEER BD-RW BDR-206 Adapter: 1 ID: 1
Режим чтения : ДостоверностьИспользование точного потока : ДаОтключение кэша аудио : ДаИспользование указателей C2 : Нет
Коррекция смещения при чтении : 667Способность читать области Lead-in и Lead-out : НетЗаполнение пропущенных сэмплов тишиной : ДаУдаление блоков с тишиной в начале и конце : НетПри вычислениях CRC использовались нулевые сэмплы : ДаИнтерфейс : Встроенный Win32-интерфейс для Win NT/2000
Выходной формат : Пользовательский кодировщикВыбранный битрейт : 1024 kBit/sКачество : ВысокийДобавление ID3-тега : НетУтилита сжатия : C:\Program Files (x86)\Exact Audio Copy\FLAC\FLAC.EXEДополнительные параметры : -T "COMMENT=Ripped by SergeyJD"-8 -V -T "ARTIST=%artist%" -T "TITLE=%title%" -T "ALBUM=%albumtitle%" -T "DATE=%year%" -T "TRACKNUMBER=%tracknr%" -T "GENRE=%genre%" -T "COMMENT=%comment%" -T "BAND=%albuminterpret%" -T "ALBUMARTIST=%albuminterpret%" -T "COMPOSER=%composer%" %haslyrics%--tag-from-file=LYRICS="%lyricsfile%"%haslyrics% -T "DISCNUMBER=%cdnumber%" -T "TOTALDISCS=%totalcds%" -T "TOTALTRACKS=%numtracks%" %hascover%--picture="%coverfile%"%hascover% %source% -o %dest%
TOC извлечённого CD
Трек | Старт | Длительность | Начальный сектор | Конечный сектор --------------------------------------------------------------------- 1 | 0:00.00 | 6:01.63 | 0 | 27137 2 | 6:01.63 | 5:14.25 | 27138 | 50712 3 | 11:16.13 | 8:09.74 | 50713 | 87461 4 | 19:26.12 | 7:42.47 | 87462 | 122158 5 | 27:08.59 | 5:28.35 | 122159 | 146793 6 | 32:37.19 | 5:01.55 | 146794 | 169423 7 | 37:38.74 | 4:53.21 | 169424 | 191419 8 | 42:32.20 | 6:05.11 | 191420 | 218805 9 | 48:37.31 | 6:39.02 | 218806 | 248732 10 | 55:16.33 | 6:34.53 | 248733 | 278335 11 | 61:51.11 | 5:57.04 | 278336 | 305114
Характеристики диапазона извлечения и сообщения об ошибках
Выбранный диапазон
Имя файла D:\РАЗДАЧИ!!!!\VA - I Love ZYX Italo Disco Collection 17 (3CD ZYX 82741-2) - 2014\Disc 2\Various Artists - I Love ZYX Italo Disco Collection 17 (CD 2).wav
Пиковый уровень 97.6 % Скорость извлечения 8.1 X Качество диапазона 100.0 % CRC теста E5EA875C CRC копии E5EA875C Копирование... OK
Ошибок не произошло
AccurateRip: сводка
Трек 1 : извлечено точно (доверие 3) [20509FB9] (AR v2)Трек 2 : извлечено точно (доверие 3) [6F910AA3] (AR v2)Трек 3 : извлечено точно (доверие 3) [6E6D6AFF] (AR v2)Трек 4 : извлечено точно (доверие 3) [85FE35D3] (AR v2)Трек 5 : извлечено точно (доверие 3) [F044E54B] (AR v2)Трек 6 : извлечено точно (доверие 3) [FB5E1A98] (AR v2)Трек 7 : извлечено точно (доверие 3) [DDCABDBD] (AR v2)Трек 8 : извлечено точно (доверие 3) [BF870B12] (AR v2)Трек 9 : извлечено точно (доверие 3) [4F495071] (AR v2)Трек 10 : извлечено точно (доверие 3) [5B6B7795] (AR v2)Трек 11 : извлечено точно (доверие 3) [7858EDD7] (AR v2)
Все треки извлечены точно
Конец отчёта
---- CUETools DB Plugin V2.1.6
[CTDB TOCID: IumDFoAQElRI1NOLxzCKbjU4LFE-] foundSubmit result: IumDFoAQElRI1NOLxzCKbjU4LFE- has been confirmedTrack | CTDB Status 1 | (3/3) Accurately ripped 2 | (3/3) Accurately ripped 3 | (3/3) Accurately ripped 4 | (3/3) Accurately ripped 5 | (3/3) Accurately ripped 6 | (3/3) Accurately ripped 7 | (3/3) Accurately ripped 8 | (3/3) Accurately ripped 9 | (3/3) Accurately ripped 10 | (3/3) Accurately ripped 11 | (3/3) Accurately ripped
==== Контрольная сумма отчёта 349EFD43DCDF07B6B0D56280FCFCF5F0F910A0BE3C36421FAEA6E21E38C02F21 ====

Содержание индексной карты (.CUE)

REM GENRE "Italo-Disco, Disco"REM DATE 2014REM DISCID A10FE40BREM COMMENT "ExactAudioCopy v1.0b6"PERFORMER "Various Artists"TITLE "I Love ZYX Italo Disco Collection 17 (CD 2)"FILE "Various Artists - I Love ZYX Italo Disco Collection 17 (CD 2).flac" WAVE TRACK 01 AUDIO TITLE "In The Morning Light (Dance Version)" PERFORMER "Olivia Gray" FLAGS DCP INDEX 01 00:00:00 TRACK 02 AUDIO TITLE "Let Me Love You" PERFORMER "G.P. Universe" FLAGS DCP INDEX 00 06:00:64 INDEX 01 06:01:63 TRACK 03 AUDIO TITLE "One Night (Disco Tech Remix)" PERFORMER "Tommy" FLAGS DCP INDEX 00 11:15:13 INDEX 01 11:16:13 TRACK 04 AUDIO TITLE "Mon Amie (Extended Remix)" PERFORMER "Bad Boys Blue" FLAGS DCP INDEX 00 19:25:21 INDEX 01 19:26:12 TRACK 05 AUDIO TITLE "Touch Me Baby (Special Disco Version)" PERFORMER "Sharon" FLAGS DCP INDEX 01 27:08:59 TRACK 06 AUDIO TITLE "Space Warriors" PERFORMER "Proxyon" FLAGS DCP INDEX 01 32:37:19 TRACK 07 AUDIO TITLE "Imagination" PERFORMER "Ringo" FLAGS DCP INDEX 01 37:38:74 TRACK 08 AUDIO TITLE "How Old Are You (Special Remix)" PERFORMER "Miko Mission" FLAGS DCP INDEX 00 42:31:20 INDEX 01 42:32:20 TRACK 09 AUDIO TITLE "Disco Night (Maxi Version)" PERFORMER "Digitronic" FLAGS DCP INDEX 01 48:37:31 TRACK 10 AUDIO TITLE "What A Shame (Retro Remix) " PERFORMER "Silent Circle" FLAGS DCP INDEX 00 55:15:33 INDEX 01 55:16:33 TRACK 11 AUDIO TITLE "Zorro" PERFORMER "My Mine" FLAGS DCP INDEX 00 61:50:41 INDEX 01 61:51:11

Лог auCDtect Task Manager

-----------------------
DON'T MODIFY THIS FILE
-----------------------
PERFORMER: auCDtect Task Manager, ver. 1.5.1RC6 build 1.5.1.7Copyright (c) 2008-2010 y-soft. All rights reservedhttp://y-soft.org
ANALYZER: auCDtect: CD records authenticity detector, version 0.8.2Copyright (c) 2004 Oleg Berngardt. All rights reserved.Copyright (c) 2004 Alexander Djourik. All rights reserved.
FILE: Various Artists - I Love ZYX Italo Disco Collection 17 (CD 2).flac Size: 519349284 Hash: 1F76A72AA9815D6FF1CF06DC2D188478 Accuracy: -m0 Conclusion: CDDA 100% Signature: E6C689C3F1C8064DD3B36F22E279FAF629CFF7B6

Замер динамического диапазона (DR)

foobar2000 1.2.3 / Замер динамического диапазона (DR) 1.1.1Дата отчёта: 2015-05-23 09:13:57
--------------------------------------------------------------------------------Анализ: Bad Boys Blue / I Love ZYX Italo Disco Collection 17 (CD 2) (1) Digitronic / I Love ZYX Italo Disco Collection 17 (CD 2) (2)--------------------------------------------------------------------------------
DR Пики RMS Продолжительность трека--------------------------------------------------------------------------------DR8 -0.21 дБ -9.07 дБ 7:43 04-Mon Amie (Extended Remix)DR9 -0.21 дБ -10.27 дБ 6:39 09-Disco Night (Maxi Version)--------------------------------------------------------------------------------
Количество треков: 2Реальные значения DR: DR8
Частота: 44100 ГцКаналов: 2Разрядность: 16Битрейт: 1021 кбит/сКодек: FLAC================================================================================
--------------------------------------------------------------------------------Анализ: G.P. Universe / I Love ZYX Italo Disco Collection 17 (CD 2) (1) Miko Mission / I Love ZYX Italo Disco Collection 17 (CD 2) (2) My Mine / I Love ZYX Italo Disco Collection 17 (CD 2) (3)--------------------------------------------------------------------------------
DR Пики RMS Продолжительность трека--------------------------------------------------------------------------------DR9 -0.21 дБ -10.12 дБ 5:14 02-Let Me Love YouDR9 -0.21 дБ -9.98 дБ 6:05 08-How Old Are You (Special Remix)DR9 -0.21 дБ -10.67 дБ 5:57 11-Zorro--------------------------------------------------------------------------------
Количество треков: 3Реальные значения DR: DR9
Частота: 44100 ГцКаналов: 2Разрядность: 16Битрейт: 1021 кбит/сКодек: FLAC================================================================================
--------------------------------------------------------------------------------Анализ: Olivia Gray / I Love ZYX Italo Disco Collection 17 (CD 2) (1) Proxyon / I Love ZYX Italo Disco Collection 17 (CD 2) (2) Ringo / I Love ZYX Italo Disco Collection 17 (CD 2) (3)--------------------------------------------------------------------------------
DR Пики RMS Продолжительность трека--------------------------------------------------------------------------------DR9 -0.21 дБ -10.43 дБ 6:02 01-In The Morning Light (Dance Version)DR9 -0.21 дБ -10.08 дБ 5:02 06-Space WarriorsDR8 -0.21 дБ -9.26 дБ 4:53 07-Imagination--------------------------------------------------------------------------------
Количество треков: 3Реальные значения DR: DR9
Частота: 44100 ГцКаналов: 2Разрядность: 16Битрейт: 1021 кбит/сКодек: FLAC================================================================================
--------------------------------------------------------------------------------Анализ: Sharon / I Love ZYX Italo Disco Collection 17 (CD 2) (1) Silent Circle / I Love ZYX Italo Disco Collection 17 (CD 2) (2)--------------------------------------------------------------------------------
DR Пики RMS Продолжительность трека--------------------------------------------------------------------------------DR9 -0.21 дБ -10.26 дБ 5:28 05-Touch Me Baby (Special Disco Version)DR7 -0.83 дБ -9.54 дБ 6:35 10-What A Shame (Retro Remix)--------------------------------------------------------------------------------
Количество треков: 2Реальные значения DR: DR8
Частота: 44100 ГцКаналов: 2Разрядность: 16Битрейт: 1021 кбит/сКодек: FLAC================================================================================
--------------------------------------------------------------------------------Статистика для: 03-One Night (Disco Tech Remix)Количество сэмплов: 21608412Продолжительность: 8:10--------------------------------------------------------------------------------
Левый Правый
Пики: -0.21 дБ --- -0.21 дБСредний RMS: -9.65 дБ --- -9.65 дБDR канала: 8.19 дБ --- 8.21 дБ--------------------------------------------------------------------------------
Реальные значения DR: DR8
Частота: 44100 ГцКаналов: 2Разрядность: 16Битрейт: 1021 кбит/сКодек: FLAC================================================================================

Disc 3 (01:08:42)

Треклист
01. Tom Spencer - Kung Fu Fighting (Munich Mix) [05:18]
02. Ringo - Shoot Your Shot (Original Horror Version) [04:42]
03. Magic Men - Popcorn [06:21]
04. Cleo - Go Go Dynamo (Vocal Version) [06:17]
05. Ingela - Do The Motion [05:07]
06. Helen - Witch (Vocal Version) [07:06]
07. Krypton - Tokyo Girl [06:26]
08. Humphrey Robertson - Love In Your Eyes (Extended Version) [07:13]
09. Cube - Two Heads Are Better Than One (Original 12' Version) [05:59]
10. Steve Allen - Message Of Love (Original 12' Version) [05:24]
11. Hypnosis - Bormaz [08:43]

Лог EAC

Exact Audio Copy V1.0 beta 6 from 9. April 2015
Отчёт EAC об извлечении, выполненном 22. мая 2015, 23:52
Various Artists / I Love ZYX Italo Disco Collection 17 (CD 3)
Дисковод: PIONEER BD-RW BDR-206 Adapter: 1 ID: 1
Режим чтения : ДостоверностьИспользование точного потока : ДаОтключение кэша аудио : ДаИспользование указателей C2 : Нет
Коррекция смещения при чтении : 667Способность читать области Lead-in и Lead-out : НетЗаполнение пропущенных сэмплов тишиной : ДаУдаление блоков с тишиной в начале и конце : НетПри вычислениях CRC использовались нулевые сэмплы : ДаИнтерфейс : Встроенный Win32-интерфейс для Win NT/2000
Выходной формат : Пользовательский кодировщикВыбранный битрейт : 1024 kBit/sКачество : ВысокийДобавление ID3-тега : НетУтилита сжатия : C:\Program Files (x86)\Exact Audio Copy\FLAC\FLAC.EXEДополнительные параметры : -T "COMMENT=Ripped by SergeyJD"-8 -V -T "ARTIST=%artist%" -T "TITLE=%title%" -T "ALBUM=%albumtitle%" -T "DATE=%year%" -T "TRACKNUMBER=%tracknr%" -T "GENRE=%genre%" -T "COMMENT=%comment%" -T "BAND=%albuminterpret%" -T "ALBUMARTIST=%albuminterpret%" -T "COMPOSER=%composer%" %haslyrics%--tag-from-file=LYRICS="%lyricsfile%"%haslyrics% -T "DISCNUMBER=%cdnumber%" -T "TOTALDISCS=%totalcds%" -T "TOTALTRACKS=%numtracks%" %hascover%--picture="%coverfile%"%hascover% %source% -o %dest%
TOC извлечённого CD
Трек | Старт | Длительность | Начальный сектор | Конечный сектор --------------------------------------------------------------------- 1 | 0:00.00 | 5:18.57 | 0 | 23906 2 | 5:18.57 | 4:42.49 | 23907 | 45105 3 | 10:01.31 | 6:21.44 | 45106 | 73724 4 | 16:23.00 | 6:17.51 | 73725 | 102050 5 | 22:40.51 | 5:07.28 | 102051 | 125103 6 | 27:48.04 | 7:06.32 | 125104 | 157085 7 | 34:54.36 | 6:26.49 | 157086 | 186084 8 | 41:21.10 | 7:13.47 | 186085 | 218606 9 | 48:34.57 | 5:59.73 | 218607 | 245604 10 | 54:34.55 | 5:24.45 | 245605 | 269949 11 | 59:59.25 | 8:43.14 | 269950 | 309188
Характеристики диапазона извлечения и сообщения об ошибках
Выбранный диапазон
Имя файла D:\РАЗДАЧИ!!!!\VA - I Love ZYX Italo Disco Collection 17 (3CD ZYX 82741-2) - 2014\Disc 3\Various Artists - I Love ZYX Italo Disco Collection 17 (CD 3).wav
Пиковый уровень 97.6 % Скорость извлечения 2.0 X Качество диапазона 100.0 % CRC теста 47AD73F1 CRC копии 47AD73F1 Копирование... OK
Ошибок не произошло
AccurateRip: сводка
Трек 1 : извлечено точно (доверие 3) [D5253582] (AR v2)Трек 2 : извлечено точно (доверие 3) [6DAA3B93] (AR v2)Трек 3 : извлечено точно (доверие 3) [44423013] (AR v2)Трек 4 : извлечено точно (доверие 3) [E410F5FF] (AR v2)Трек 5 : извлечено точно (доверие 3) [8F60D52B] (AR v2)Трек 6 : извлечено точно (доверие 3) [67FE0FD2] (AR v2)Трек 7 : извлечено точно (доверие 3) [B033C373] (AR v2)Трек 8 : извлечено точно (доверие 3) [97B825CB] (AR v2)Трек 9 : извлечено точно (доверие 3) [275D0CAC] (AR v2)Трек 10 : извлечено точно (доверие 3) [F1FC2ACE] (AR v2)Трек 11 : извлечено точно (доверие 3) [F38249FE] (AR v2)
Все треки извлечены точно
Конец отчёта
---- CUETools DB Plugin V2.1.6
[CTDB TOCID: Y34WjBCbKjx1iOBQ1cOJ2KXinYk-] foundSubmit result: Y34WjBCbKjx1iOBQ1cOJ2KXinYk- has been confirmedTrack | CTDB Status 1 | (3/3) Accurately ripped 2 | (3/3) Accurately ripped 3 | (3/3) Accurately ripped 4 | (3/3) Accurately ripped 5 | (3/3) Accurately ripped 6 | (3/3) Accurately ripped 7 | (3/3) Accurately ripped 8 | (3/3) Accurately ripped 9 | (3/3) Accurately ripped 10 | (3/3) Accurately ripped 11 | (3/3) Accurately ripped
==== Контрольная сумма отчёта 6DB566E5412F8A4F5242C9FA7D395B325644F4DB500AC9F87A44195A56ADABED ====

Содержание индексной карты (.CUE)

REM GENRE "Italo-Disco, Disco"REM DATE 2014REM DISCID 90101A0BREM COMMENT "ExactAudioCopy v1.0b6"PERFORMER "Various Artists"TITLE "I Love ZYX Italo Disco Collection 17 (CD 3)"FILE "Various Artists - I Love ZYX Italo Disco Collection 17 (CD 3).flac" WAVE TRACK 01 AUDIO TITLE "Kung Fu Fighting (Munich Mix)" PERFORMER "Tom Spencer" FLAGS DCP INDEX 01 00:00:00 TRACK 02 AUDIO TITLE "Shoot Your Shot (Original Horror Version)" PERFORMER "Ringo" FLAGS DCP INDEX 01 05:18:57 TRACK 03 AUDIO TITLE "Popcorn" PERFORMER "Magic Men" FLAGS DCP INDEX 00 10:00:31 INDEX 01 10:01:31 TRACK 04 AUDIO TITLE "Go Go Dynamo (Vocal Version)" PERFORMER "Cleo" FLAGS DCP INDEX 00 16:22:09 INDEX 01 16:23:00 TRACK 05 AUDIO TITLE "Do The Motion" PERFORMER "Ingela" FLAGS DCP INDEX 00 22:39:71 INDEX 01 22:40:51 TRACK 06 AUDIO TITLE "Witch (Vocal Version)" PERFORMER "Helen" FLAGS DCP INDEX 00 27:47:04 INDEX 01 27:48:04 TRACK 07 AUDIO TITLE "Tokyo Girl" PERFORMER "Krypton" FLAGS DCP INDEX 01 34:54:36 TRACK 08 AUDIO TITLE "Love In Your Eyes (Extended Version)" PERFORMER "Humphrey Robertson " FLAGS DCP INDEX 00 41:20:20 INDEX 01 41:21:10 TRACK 09 AUDIO TITLE "Two Heads Are Better Than One (Original 12' Version)" PERFORMER "Cube" FLAGS DCP INDEX 00 48:33:57 INDEX 01 48:34:57 TRACK 10 AUDIO TITLE "Message Of Love (Original 12' Version)" PERFORMER "Steve Allen" FLAGS DCP INDEX 01 54:34:55 TRACK 11 AUDIO TITLE "Bormaz" PERFORMER "Hypnosis" FLAGS DCP INDEX 00 59:58:26 INDEX 01 59:59:25

Лог auCDtect Task Manager

-----------------------
DON'T MODIFY THIS FILE
-----------------------
PERFORMER: auCDtect Task Manager, ver. 1.5.1RC6 build 1.5.1.7Copyright (c) 2008-2010 y-soft. All rights reservedhttp://y-soft.org
ANALYZER: auCDtect: CD records authenticity detector, version 0.8.2Copyright (c) 2004 Oleg Berngardt. All rights reserved.Copyright (c) 2004 Alexander Djourik. All rights reserved.
FILE: Various Artists - I Love ZYX Italo Disco Collection 17 (CD 3).flac Size: 509120357 Hash: EBCF172EF6E90847FBB796A61825B252 Accuracy: -m0 Conclusion: CDDA 100% Signature: C1021CBFED0818B3A88D4E104E75FD4781C15051

Замер динамического диапазона (DR)

foobar2000 1.2.3 / Замер динамического диапазона (DR) 1.1.1Дата отчёта: 2015-05-23 09:15:00
--------------------------------------------------------------------------------Анализ: Cleo / I Love ZYX Italo Disco Collection 17 (CD 3) (1) Cube / I Love ZYX Italo Disco Collection 17 (CD 3) (2)--------------------------------------------------------------------------------
DR Пики RMS Продолжительность трека--------------------------------------------------------------------------------DR9 -0.21 дБ -10.81 дБ 6:18 04-Go Go Dynamo (Vocal Version)DR8 -0.21 дБ -9.47 дБ 6:00 09-Two Heads Are Better Than One (Original 12' Version)--------------------------------------------------------------------------------
Количество треков: 2Реальные значения DR: DR9
Частота: 44100 ГцКаналов: 2Разрядность: 16Битрейт: 988 кбит/сКодек: FLAC================================================================================
--------------------------------------------------------------------------------Анализ: Helen / I Love ZYX Italo Disco Collection 17 (CD 3) (1) Humphrey Robertson / I Love ZYX Italo Disco Collection 17 (CD 3) (2) Hypnosis / I Love ZYX Italo Disco Collection 17 (CD 3) (3)--------------------------------------------------------------------------------
DR Пики RMS Продолжительность трека--------------------------------------------------------------------------------DR10 -0.21 дБ -11.67 дБ 7:06 06-Witch (Vocal Version)DR8 -0.21 дБ -9.48 дБ 7:14 08-Love In Your Eyes (Extended Version)DR9 -0.21 дБ -10.22 дБ 8:43 11-Bormaz--------------------------------------------------------------------------------
Количество треков: 3Реальные значения DR: DR9
Частота: 44100 ГцКаналов: 2Разрядность: 16Битрейт: 988 кбит/сКодек: FLAC================================================================================
--------------------------------------------------------------------------------Анализ: Ingela / I Love ZYX Italo Disco Collection 17 (CD 3) (1) Krypton / I Love ZYX Italo Disco Collection 17 (CD 3) (2)--------------------------------------------------------------------------------
DR Пики RMS Продолжительность трека--------------------------------------------------------------------------------DR8 -0.21 дБ -9.69 дБ 5:07 05-Do The MotionDR9 -0.21 дБ -10.52 дБ 6:27 07-Tokyo Girl--------------------------------------------------------------------------------
Количество треков: 2Реальные значения DR: DR9
Частота: 44100 ГцКаналов: 2Разрядность: 16Битрейт: 988 кбит/сКодек: FLAC================================================================================
--------------------------------------------------------------------------------Статистика для: 03-PopcornКоличество сэмплов: 16827972Продолжительность: 6:22--------------------------------------------------------------------------------
Левый Правый
Пики: -0.21 дБ --- -0.21 дБСредний RMS: -10.00 дБ --- -10.00 дБDR канала: 9.04 дБ --- 8.71 дБ--------------------------------------------------------------------------------
Реальные значения DR: DR9
Частота: 44100 ГцКаналов: 2Разрядность: 16Битрейт: 988 кбит/сКодек: FLAC================================================================================--------------------------------------------------------------------------------Анализ: Ringo / I Love ZYX Italo Disco Collection 17 (CD 3) (1) Steve Allen / I Love ZYX Italo Disco Collection 17 (CD 3) (2)--------------------------------------------------------------------------------
DR Пики RMS Продолжительность трека--------------------------------------------------------------------------------DR9 -0.21 дБ -10.91 дБ 4:43 02-Shoot Your Shot (Original Horror Version)DR8 -0.21 дБ -10.37 дБ 5:25 10-Message Of Love (Original 12' Version)--------------------------------------------------------------------------------
Количество треков: 2Реальные значения DR: DR9
Частота: 44100 ГцКаналов: 2Разрядность: 16Битрейт: 988 кбит/сКодек: FLAC================================================================================
--------------------------------------------------------------------------------Статистика для: 01-Kung Fu Fighting (Munich Mix)Количество сэмплов: 14057316Продолжительность: 5:19--------------------------------------------------------------------------------
Левый Правый
Пики: -0.21 дБ --- -0.21 дБСредний RMS: -9.64 дБ --- -9.64 дБDR канала: 8.22 дБ --- 8.42 дБ--------------------------------------------------------------------------------
Реальные значения DR: DR8
Частота: 44100 ГцКаналов: 2Разрядность: 16Битрейт: 988 кбит/сКодек: FLAC================================================================================

-
-
[Профиль] [ЛС]

Создавать темы 13-Авг-2015 11:14 (спустя 2 месяца 21 день)

Топик был перенесен из форума Сборники в форум Technopop, Eurodance, Disco
sergej644
 
Показать сообщения:    

Текущее время: Сегодня 03:12

Часовой пояс: GMT



Вы не можете начинать темы
Вы не можете отвечать на сообщения
Вы не можете редактировать свои сообщения
Вы не можете удалять свои сообщения
Вы не можете голосовать в опросах
Вы не можете прикреплять файлы к сообщениям
Вы не можете скачивать файлы