(Hard Rock) [CD] Slash - World On Fire - 2014, FLAC (tracks+.cue), lossless

 
Автор Сообщение

sergej644 ®

Пол:

Стаж: 4 года 11 месяцев

Сообщений: 6046

Откуда: Soviet Union



Награды: Нет

Торрент-статистика

Создавать темы 12-Сен-2014 22:54

[Цитировать]

Slash / World On Fire
Жанр: Hard Rock
Носитель: CD
Год издания: 2014
Издатель (лейбл): Dik Hayd International
Страна: USA
Аудиокодек: FLAC (*.flac)
Тип рипа: tracks+.cue
Битрейт аудио: lossless
Продолжительность: 01:17:33
Источник (релизер): What.cd by JulmaJuu
Наличие сканов в содержимом раздачи: нет
Треклист
01. World On Fire (4:31)
02. Shadow Life (4:01)
03. Automatic Overdrive (3:36)
04. Wicked Stone (5:28)
05. 30 Years To Life (5:08)
06. Bent To Fly (4:57)
07. Stone Blind (3:50)
08. Too Far Gone (4:07)
09. Beneath The Savage Sun (5:49)
10. Withered Delilah (3:10)
11. Battleground (6:59)
12. Dirty Girl (4:14)
13. Iris Of The Storm (4:01)
14. Avalon (3:01)
15. The Dissident (4:26)
16. Safari Inn (3:27)
17. The Unholy (6:48)

Лог создания рипа

Started at: пятница, 12. 09. 2014. - 23:00.39
17 files found
01 -===- G:\Torrent\Slash - World on Fire\01. World on Fire.flac
  Extracted successfully
  Conclusion: this track is CDDA with probability 100%
  Tempfile successfully deleted.
02 -===- G:\Torrent\Slash - World on Fire\02. Shadow Life.flac
  Extracted successfully
  Conclusion: this track is CDDA with probability 100%
  Tempfile successfully deleted.
03 -===- G:\Torrent\Slash - World on Fire\03. Automatic Overdrive.flac
  Extracted successfully
  Conclusion: this track is CDDA with probability 100%
  Tempfile successfully deleted.
04 -===- G:\Torrent\Slash - World on Fire\04. Wicked Stone.flac
  Extracted successfully
  Conclusion: this track is CDDA with probability 100%
  Tempfile successfully deleted.
05 -===- G:\Torrent\Slash - World on Fire\05. 30 Years to Life.flac
  Extracted successfully
  Conclusion: this track is CDDA with probability 100%
  Tempfile successfully deleted.
06 -===- G:\Torrent\Slash - World on Fire\06. Bent to Fly.flac
  Extracted successfully
  Conclusion: this track is CDDA with probability 100%
  Tempfile successfully deleted.
07 -===- G:\Torrent\Slash - World on Fire\07. Stone Blind.flac
  Extracted successfully
  Conclusion: this track is CDDA with probability 100%
  Tempfile successfully deleted.
08 -===- G:\Torrent\Slash - World on Fire\08. Too Far Gone.flac
  Extracted successfully
  Conclusion: this track is CDDA with probability 100%
  Tempfile successfully deleted.
09 -===- G:\Torrent\Slash - World on Fire\09. Beneath the Savage Sun.flac
  Extracted successfully
  Conclusion: this track is CDDA with probability 100%
  Tempfile successfully deleted.
10 -===- G:\Torrent\Slash - World on Fire\10. Withered Delilah.flac
  Extracted successfully
  Conclusion: this track is CDDA with probability 100%
  Tempfile successfully deleted.
11 -===- G:\Torrent\Slash - World on Fire\11. Battleground.flac
  Extracted successfully
  Conclusion: this track is CDDA with probability 100%
  Tempfile successfully deleted.
12 -===- G:\Torrent\Slash - World on Fire\12. Dirty Girl.flac
  Extracted successfully
  Conclusion: this track is CDDA with probability 100%
  Tempfile successfully deleted.
13 -===- G:\Torrent\Slash - World on Fire\13. Iris of the Storm.flac
  Extracted successfully
  Conclusion: this track is CDDA with probability 100%
  Tempfile successfully deleted.
14 -===- G:\Torrent\Slash - World on Fire\14. Avalon.flac
  Extracted successfully
  Conclusion: this track is CDDA with probability 100%
  Tempfile successfully deleted.
15 -===- G:\Torrent\Slash - World on Fire\15. The Dissident.flac
  Extracted successfully
  Conclusion: this track is CDDA with probability 100%
  Tempfile successfully deleted.
16 -===- G:\Torrent\Slash - World on Fire\16. Safari Inn.flac
  Extracted successfully
  Conclusion: this track is CDDA with probability 100%
  Tempfile successfully deleted.
17 -===- G:\Torrent\Slash - World on Fire\17. The Unholy.flac
  Extracted successfully
  Conclusion: this track is CDDA with probability 100%
  Tempfile successfully deleted.
Finished at: пятница, 12. 09. 2014. - 23:03.23 (operation time: 0:02.44)

Содержание индексной карты (.CUE)

REM DATE 2014
REM DISCID 0A122C11
REM COMMENT "ExactAudioCopy v1.0b3"
CATALOG 0016861755829
PERFORMER "Slash"
TITLE "World on Fire"
FILE "01. World on Fire.wav" WAVE
  TRACK 01 AUDIO
    TITLE "World on Fire"
    PERFORMER "Slash"
    ISRC US9T51400001
    INDEX 01 00:00:00
FILE "02. Shadow Life.wav" WAVE
  TRACK 02 AUDIO
    TITLE "Shadow Life"
    PERFORMER "Slash"
    ISRC US9T51400002
    INDEX 01 00:00:00
FILE "03. Automatic Overdrive.wav" WAVE
  TRACK 03 AUDIO
    TITLE "Automatic Overdrive"
    PERFORMER "Slash"
    ISRC US9T51400003
    INDEX 01 00:00:00
FILE "04. Wicked Stone.wav" WAVE
  TRACK 04 AUDIO
    TITLE "Wicked Stone"
    PERFORMER "Slash"
    ISRC US9T51400004
    INDEX 01 00:00:00
FILE "05. 30 Years to Life.wav" WAVE
  TRACK 05 AUDIO
    TITLE "30 Years to Life"
    PERFORMER "Slash"
    ISRC US9T51400005
    INDEX 01 00:00:00
FILE "06. Bent to Fly.wav" WAVE
  TRACK 06 AUDIO
    TITLE "Bent to Fly"
    PERFORMER "Slash"
    ISRC US9T51400012
    INDEX 01 00:00:00
FILE "07. Stone Blind.wav" WAVE
  TRACK 07 AUDIO
    TITLE "Stone Blind"
    PERFORMER "Slash"
    ISRC US9T51400011
    INDEX 01 00:00:00
FILE "08. Too Far Gone.wav" WAVE
  TRACK 08 AUDIO
    TITLE "Too Far Gone"
    PERFORMER "Slash"
    ISRC US9T51400010
    INDEX 01 00:00:00
FILE "09. Beneath the Savage Sun.wav" WAVE
  TRACK 09 AUDIO
    TITLE "Beneath the Savage Sun"
    PERFORMER "Slash"
    ISRC US9T51400009
    INDEX 01 00:00:00
FILE "10. Withered Delilah.wav" WAVE
  TRACK 10 AUDIO
    TITLE "Withered Delilah"
    PERFORMER "Slash"
    ISRC US9T51400008
    INDEX 01 00:00:00
FILE "11. Battleground.wav" WAVE
  TRACK 11 AUDIO
    TITLE "Battleground"
    PERFORMER "Slash"
    ISRC US9T51400007
    INDEX 01 00:00:00
FILE "12. Dirty Girl.wav" WAVE
  TRACK 12 AUDIO
    TITLE "Dirty Girl"
    PERFORMER "Slash"
    ISRC US9T51400013
    INDEX 01 00:00:00
FILE "13. Iris of the Storm.wav" WAVE
  TRACK 13 AUDIO
    TITLE "Iris of the Storm"
    PERFORMER "Slash"
    ISRC US9T51400006
    INDEX 01 00:00:00
FILE "14. Avalon.wav" WAVE
  TRACK 14 AUDIO
    TITLE "Avalon"
    PERFORMER "Slash"
    ISRC US9T51400015
    INDEX 01 00:00:00
FILE "15. The Dissident.wav" WAVE
  TRACK 15 AUDIO
    TITLE "The Dissident"
    PERFORMER "Slash"
    ISRC US9T51400014
    INDEX 01 00:00:00
FILE "16. Safari Inn.wav" WAVE
  TRACK 16 AUDIO
    TITLE "Safari Inn"
    PERFORMER "Slash"
    ISRC US9T51400016
    INDEX 01 00:00:00
FILE "17. The Unholy.wav" WAVE
  TRACK 17 AUDIO
    TITLE "The Unholy"
    PERFORMER "Slash"
    ISRC US9T51400017
    INDEX 01 00:00:00

Лог проверки качества

Exact Audio Copy V1.0 beta 3 from 29. August 2011
EAC extraction logfile from 12. September 2014, 21:41
Slash / World on Fire
Used drive  : HL-DT-STBD-RE  BH12LS30   Adapter: 0  ID: 0
Read mode               : Secure
Utilize accurate stream : Yes
Defeat audio cache      : Yes
Make use of C2 pointers : No
Read offset correction                      : 667
Overread into Lead-In and Lead-Out          : No
Fill up missing offset samples with silence : Yes
Delete leading and trailing silent blocks   : No
Null samples used in CRC calculations       : Yes
Used interface                              : Native Win32 interface for Win NT & 2000
Gap handling                                : Appended to previous track
Used output format              : User Defined Encoder
Selected bitrate                : 1024 kBit/s
Quality                         : High
Add ID3 tag                     : No
Command line compressor         : C:\Program Files (x86)\Exact Audio Copy\Flac\flac.exe
Additional command line options : -8 -V -T "ARTIST=%artist%" -T "TITLE=%title%" -T "ALBUM=%albumtitle%" -T "DATE=%year%" -T "TRACKNUMBER=%tracknr%" -T "GENRE=%genre%" -T "PERFORMER=%albuminterpret%" -T "COMPOSER=%composer%" %haslyrics%--tag-from-file=LYRICS="%lyricsfile%"%haslyrics% -T "ALBUMARTIST=%albumartist%" -T "DISCNUMBER=%cdnumber%" -T "TOTALDISCS=%totalcds%" -T "TOTALTRACKS=%numtracks%" -T "COMMENT=%comment%" %source% -o %dest%
TOC of the extracted CD
     Track |   Start  |  Length  | Start sector | End sector
    ---------------------------------------------------------
        1  |  0:00.00 |  4:31.02 |         0    |    20326
        2  |  4:31.02 |  4:00.64 |     20327    |    38390
        3  |  8:31.66 |  3:35.65 |     38391    |    54580
        4  | 12:07.56 |  5:27.62 |     54581    |    79167
        5  | 17:35.43 |  5:08.12 |     79168    |   102279
        6  | 22:43.55 |  4:56.53 |    102280    |   124532
        7  | 27:40.33 |  3:49.73 |    124533    |   141780
        8  | 31:30.31 |  4:07.26 |    141781    |   160331
        9  | 35:37.57 |  5:48.38 |    160332    |   186469
       10  | 41:26.20 |  3:10.22 |    186470    |   200741
       11  | 44:36.42 |  6:59.05 |    200742    |   232171
       12  | 51:35.47 |  4:14.02 |    232172    |   251223
       13  | 55:49.49 |  4:00.41 |    251224    |   269264
       14  | 59:50.15 |  3:00.51 |    269265    |   282815
       15  | 62:50.66 |  4:26.26 |    282816    |   302791
       16  | 67:17.17 |  3:26.65 |    302792    |   318306
       17  | 70:44.07 |  6:48.16 |    318307    |   348922
Track  1
     Filename C:\EACRips\Slash - World on Fire\01. World on Fire.wav
     Pre-gap length  0:00:02.00
     Peak level 100.0 %
     Extraction speed 1.2 X
     Track quality 100.0 %
     Test CRC CCAB8008
     Copy CRC CCAB8008
     Track not present in AccurateRip database
     Copy OK
Track  2
     Filename C:\EACRips\Slash - World on Fire\02. Shadow Life.wav
     Peak level 100.0 %
     Extraction speed 1.3 X
     Track quality 100.0 %
     Test CRC 7441B3CF
     Copy CRC 7441B3CF
     Track not present in AccurateRip database
     Copy OK
Track  3
     Filename C:\EACRips\Slash - World on Fire\03. Automatic Overdrive.wav
     Peak level 100.0 %
     Extraction speed 1.4 X
     Track quality 100.0 %
     Test CRC 951C9274
     Copy CRC 951C9274
     Track not present in AccurateRip database
     Copy OK
Track  4
     Filename C:\EACRips\Slash - World on Fire\04. Wicked Stone.wav
     Peak level 100.0 %
     Extraction speed 1.6 X
     Track quality 100.0 %
     Test CRC 0FB9CA7C
     Copy CRC 0FB9CA7C
     Track not present in AccurateRip database
     Copy OK
Track  5
     Filename C:\EACRips\Slash - World on Fire\05. 30 Years to Life.wav
     Peak level 100.0 %
     Extraction speed 1.7 X
     Track quality 100.0 %
     Test CRC C9AF4096
     Copy CRC C9AF4096
     Track not present in AccurateRip database
     Copy OK
Track  6
     Filename C:\EACRips\Slash - World on Fire\06. Bent to Fly.wav
     Peak level 100.0 %
     Extraction speed 1.8 X
     Track quality 100.0 %
     Test CRC 0AE5F277
     Copy CRC 0AE5F277
     Track not present in AccurateRip database
     Copy OK
Track  7
     Filename C:\EACRips\Slash - World on Fire\07. Stone Blind.wav
     Peak level 100.0 %
     Extraction speed 1.9 X
     Track quality 100.0 %
     Test CRC CA9FD572
     Copy CRC CA9FD572
     Track not present in AccurateRip database
     Copy OK
Track  8
     Filename C:\EACRips\Slash - World on Fire\08. Too Far Gone.wav
     Peak level 100.0 %
     Extraction speed 1.7 X
     Track quality 99.9 %
     Test CRC EB877601
     Copy CRC EB877601
     Track not present in AccurateRip database
     Copy OK
Track  9
     Filename C:\EACRips\Slash - World on Fire\09. Beneath the Savage Sun.wav
     Peak level 100.0 %
     Extraction speed 2.1 X
     Track quality 100.0 %
     Test CRC D6CF9303
     Copy CRC D6CF9303
     Track not present in AccurateRip database
     Copy OK
Track 10
     Filename C:\EACRips\Slash - World on Fire\10. Withered Delilah.wav
     Peak level 100.0 %
     Extraction speed 2.0 X
     Track quality 100.0 %
     Test CRC BB3AFB1F
     Copy CRC BB3AFB1F
     Track not present in AccurateRip database
     Copy OK
Track 11
     Filename C:\EACRips\Slash - World on Fire\11. Battleground.wav
     Peak level 100.0 %
     Extraction speed 2.3 X
     Track quality 100.0 %
     Test CRC CD91F42A
     Copy CRC CD91F42A
     Track not present in AccurateRip database
     Copy OK
Track 12
     Filename C:\EACRips\Slash - World on Fire\12. Dirty Girl.wav
     Peak level 100.0 %
     Extraction speed 2.3 X
     Track quality 100.0 %
     Test CRC 9F80944F
     Copy CRC 9F80944F
     Track not present in AccurateRip database
     Copy OK
Track 13
     Filename C:\EACRips\Slash - World on Fire\13. Iris of the Storm.wav
     Peak level 100.0 %
     Extraction speed 2.3 X
     Track quality 100.0 %
     Test CRC 6E3D4257
     Copy CRC 6E3D4257
     Track not present in AccurateRip database
     Copy OK
Track 14
     Filename C:\EACRips\Slash - World on Fire\14. Avalon.wav
     Peak level 100.0 %
     Extraction speed 2.3 X
     Track quality 100.0 %
     Test CRC F99DF6D7
     Copy CRC F99DF6D7
     Track not present in AccurateRip database
     Copy OK
Track 15
     Filename C:\EACRips\Slash - World on Fire\15. The Dissident.wav
     Peak level 100.0 %
     Extraction speed 2.5 X
     Track quality 100.0 %
     Test CRC 4FDFC7FC
     Copy CRC 4FDFC7FC
     Track not present in AccurateRip database
     Copy OK
Track 16
     Filename C:\EACRips\Slash - World on Fire\16. Safari Inn.wav
     Peak level 100.0 %
     Extraction speed 2.4 X
     Track quality 100.0 %
     Test CRC B7A3A9CD
     Copy CRC B7A3A9CD
     Track not present in AccurateRip database
     Copy OK
Track 17
     Filename C:\EACRips\Slash - World on Fire\17. The Unholy.wav
     Peak level 100.0 %
     Extraction speed 2.8 X
     Track quality 100.0 %
     Test CRC 5956744A
     Copy CRC 5956744A
     Track not present in AccurateRip database
     Copy OK
None of the tracks are present in the AccurateRip database
No errors occurred
End of status report
---- CUETools DB Plugin V2.1.4
[CTDB TOCID: _GCRHWxWa4fRnFSL_qSOieJ2vJk-] found
Submit result: _GCRHWxWa4fRnFSL_qSOieJ2vJk- has been confirmed
Track | CTDB Status
  1   | (2/2) Accurately ripped
  2   | (2/2) Accurately ripped
  3   | (2/2) Accurately ripped
  4   | (2/2) Accurately ripped
  5   | (2/2) Accurately ripped
  6   | (2/2) Accurately ripped
  7   | (2/2) Accurately ripped
  8   | (2/2) Accurately ripped
  9   | (2/2) Accurately ripped
10   | (2/2) Accurately ripped
11   | (2/2) Accurately ripped
12   | (2/2) Accurately ripped
13   | (2/2) Accurately ripped
14   | (2/2) Accurately ripped
15   | (2/2) Accurately ripped
16   | (2/2) Accurately ripped
17   | (2/2) Accurately ripped
==== Log checksum B779D266BF75545A66F9E63A79B3238433DFEB9310E79DC1040764B5EB1F171E ====
--
[Профиль] [ЛС]
Показать сообщения:    

Текущее время: Сегодня 11:07

Часовой пояс: GMT



Вы не можете начинать темы
Вы не можете отвечать на сообщения
Вы не можете редактировать свои сообщения
Вы не можете удалять свои сообщения
Вы не можете голосовать в опросах
Вы не можете прикреплять файлы к сообщениям
Вы не можете скачивать файлы