(Шансон) [CD] Сборная союза - У бога рай не украдешь - 2014, FLAC (image+.cue), lossless

 
Автор Сообщение

sergej644 ®

Пол:

Стаж: 4 года 11 месяцев

Сообщений: 6038

Откуда: Soviet Union



Награды: Нет

Торрент-статистика

Создавать темы 03-Сен-2014 19:32

[Цитировать]

Сборная союза / У бога рай не украдешь-Жанр: Шансон
Носитель: CD
Страна-производитель диска: Россия
Год издания: 2014
Страна: Россия
Аудиокодек: FLAC (*.flac)
Тип рипа: image+.cue
Битрейт аудио: lossless
Продолжительность: 01:15:57
Источник (релизер): KEN-KIRILLOV
Наличие сканов в содержимом раздачи: да
-

Треклист

01. У бога рай не украдешь (3:53)
02. Песня о счастье (4:29)
03. Так было и будет (4:09)
04. Из каждого окна (4:02)
05. Мама моя (3:56)
06. Свиданка (3:37)
07. Боль (3:44)
08. Белые розы (3:05)
09. Мы мотыльки (4:05)
10. Смотри на небеса (3:29)
11. Время пулей летит (3:44)
12. Живу и кайфую (3:42)
13. Любовь к Родине (3:52)
14. Я самый лучший (3:28)
15. По сонному Русскому городу (3:55)
16. Попутчица (3:45)
17. Любовь-это страшная сила (3:44)
18. Я за тебя в ответе (3:56)
19. Расскажи (3:40)
20. Радость и беда (3:43)

Лог создания рипа

Exact Audio Copy V1.0 beta 3 from 29. August 2011
Отчёт EAC об извлечении, выполненном 19. февраля 2014, 3:54
Сборная союза / У бога рай не украдешь
Дисковод: Optiarc DVD RW AD-5200S   Adapter: 1  ID: 1
Режим чтения                 : Достоверность
Использование точного потока : Да
Отключение кэша аудио        : Да
Использование указателей C2  : Нет
Коррекция смещения при чтении                     : 48
Способность читать области Lead-in и Lead-out     : Нет
Заполнение пропущенных сэмплов тишиной            : Да
Удаление блоков с тишиной в начале и конце        : Нет
При вычислениях CRC использовались нулевые сэмплы : Да
Интерфейс                                         : Установленный внешний ASPI-интерфейс
Выходной формат          : Пользовательский кодировщик
Выбранный битрейт        : 896 kBit/s
Качество                 : ВысокийДобавление ID3-тега      : Нет
Утилита сжатия           : E:\Portable Exact Audio Copy 1.0 beta 3 RUS\App\EAC\FLAC\flac.exe
Дополнительные параметры : -V -8 %source%
TOC извлечённого CD
Трек |   Старт  | Длительность | Начальный сектор | Конечный сектор
---------------------------------------------------------------------
1  |  0:00.00 |    3:52.39   |           0      |      17438
2  |  3:52.39 |    4:28.66   |       17439      |      37604
3  |  8:21.30 |    4:08.47   |       37605      |      56251
4  | 12:30.02 |    4:01.65   |       56252      |      74391
5  | 16:31.67 |    3:56.01   |       74392      |      92092
6  | 20:27.68 |    3:36.41   |       92093      |     108333
7  | 24:04.34 |    3:44.26   |      108334      |     125159
8  | 27:48.60 |    3:05.34   |      125160      |     139068
9  | 30:54.19 |    4:05.08   |      139069      |     157451
10  | 34:59.27 |    3:28.62   |      157452      |     173113
11  | 38:28.14 |    3:44.36   |      173114      |     189949
12  | 42:12.50 |    3:42.31   |      189950      |     206630
13  | 45:55.06 |    3:51.59   |      206631      |     224014
14  | 49:46.65 |    3:27.39   |      224015      |     239578
15  | 53:14.29 |    3:55.01   |      239579      |     257204
16  | 57:09.30 |    3:44.69   |      257205      |     274073
17  | 60:54.24 |    3:43.45   |      274074      |     290843
18  | 64:37.69 |    3:55.41   |      290844      |     308509
19  | 68:33.35 |    3:40.23   |      308510      |     325032
20  | 72:13.58 |    3:43.17   |      325033      |     341774
Характеристики диапазона извлечения и сообщения об ошибках
Выбранный диапазон
Имя файла E:\Сборная союза 2014 - У бога рай не украдёшь (Lossless)\Сборная союза - У бога рай не украдешь.wav
Пиковый уровень 95.2 %
Скорость извлечения 4.5 X
Качество диапазона 99.9 %
CRC копии 7864B096
Копирование... OK
Ошибок не произошло
Конец отчёта
==== Контрольная сумма отчёта 5ABC39C04F5D005F6B5DA8FDCE09950F7C814C934A7F2E677E2E3A7C95F71AE7 ====

Лог проверки качества

AUDIOCHECKER v2.0 beta (build 457) - by Dester - opdester@freemail.hu
~~~~~~~~~~~~~~~~~~~~~~~~~~~~~~~~~~
-=== НЕ РЕДАКТИРУЙТЕ ЭТОТ ФАЙЛ! ===-
Путь: ...\Сборная союза 2014 - У бога рай не украдёшь (Lossless)
1 -=- Сборная союза - У бога рай не украдешь.Flac -=- CDDA (100%)
45175828

Скриншот спектра частот

--
[Профиль] [ЛС]

Создавать темы 13-Авг-2015 10:06 (спустя 11 месяцев 9 дней)

Топик был перенесен из форума Отечественная в форум Сhanson
sergej644
 
Кто просматривает тему:

Показать сообщения:    

Текущее время: Сегодня 00:10

Часовой пояс: GMT



Вы не можете начинать темы
Вы не можете отвечать на сообщения
Вы не можете редактировать свои сообщения
Вы не можете удалять свои сообщения
Вы не можете голосовать в опросах
Вы не можете прикреплять файлы к сообщениям
Вы не можете скачивать файлы